<?xml version="1.0" standalone="no"?>
<!DOCTYPE svg PUBLIC "-//W3C//DTD SVG 1.1//EN" "http://www.w3.org/Graphics/SVG/1.1/DTD/svg11.dtd" >
<svg xmlns="http://www.w3.org/2000/svg">
<metadata>
<json>
<![CDATA[
{
	"fontFamily": "flags",
	"majorVersion": 1,
	"minorVersion": 0,
	"fontURL": "https://www.myfxbots.com/index.html",
	"designerURL": "https://www.myfxbots.com/index.html",
	"licenseURL": "https://www.myfxbots.com/index.html",
	"description": "Country Flags\nFont generated by IcoMoon.",
	"copyright": "MyFxBots.com",
	"designer": "MyFxBots.com",
	"version": "Version 1.0",
	"fontId": "flags",
	"psName": "flags",
	"subFamily": "Regular",
	"fullName": "flags"
}
]]>
</json>
</metadata>
<defs>
<font id="flags" horiz-adv-x="1024">
<font-face units-per-em="1024" ascent="960" descent="-64" />
<missing-glyph horiz-adv-x="1024" />
<glyph unicode="&#x20;" horiz-adv-x="512" d="" />
<glyph unicode="&#xe900;" d="M0 959.204h1024v-146.12h-1024v146.12z" />
<glyph unicode="&#xe901;" d="M0 813.096h1024v-146.12h-1024v146.12z" />
<glyph unicode="&#xe902;" d="M0 666.936h1024v-146.12h-1024v146.12z" />
<glyph unicode="&#xe903;" d="M0 520.816h1024v-146.12h-1024v146.12z" />
<glyph unicode="&#xe904;" d="M0 374.696h1024v-146.12h-1024v146.12z" />
<glyph unicode="&#xe905;" d="M0 228.576h1024v-146.12h-1024v146.12z" />
<glyph unicode="&#xe906;" d="M0 82.456h1024v-146.12h-1024v146.12z" />
<glyph unicode="&#xe907;" d="M0 959.664h685.34v-438.020h-685.34v438.020z" />
<glyph unicode="&#xe908;" d="M368.948 556.218h-43.368c-3.944 0-7.472 2.456-8.842 6.154l-13.962 37.696c-5.45 14.716-7.898 30.376-7.198 46.054l4.86 108.878c0.124 2.764 1.898 5.18 4.498 6.126v0c4.462 1.622 9.182-1.682 9.182-6.43v-49.582c0-1.386 1.124-2.51 2.51-2.51v0c1.338 0 2.442 1.050 2.508 2.386l3.898 79.058c0.158 3.21 2.57 5.858 5.752 6.312v0c3.944 0.564 7.508-2.416 7.654-6.398l2.69-73.706c0.054-1.48 1.364-2.596 2.834-2.412v0c1.244 0.156 2.184 1.2 2.21 2.454l1.616 81.902c0.088 4.472 4.488 7.578 8.73 6.162v0c2.598-0.866 4.396-3.238 4.528-5.974l3.996-82.784c0.044-0.92 0.582-1.746 1.406-2.158v0c1.664-0.832 3.632 0.342 3.69 2.202l2.004 64.142c0.152 4.844 5.226 7.938 9.6 5.854v0c2.21-1.052 3.672-3.224 3.818-5.666l4.666-78.726 12.49-36.432c0.702-2.046 3.576-2.084 4.32-0.054 3.538 9.656 11.566 27.686 24.45 35.628 2.282 1.406 5.208 1.224 7.352-0.384v0c3.154-2.366 3.524-6.928 0.826-9.8-6.28-6.684-15.434-20.732-14.772-45.434 0.084-3.142-0.826-6.234-2.684-8.772l-35.19-48.076c-3.524-4.814-5.784-10.436-6.572-16.348l-0.158-1.18c-0.62-4.686-4.616-8.182-9.342-8.182z" />
<glyph unicode="&#xe909;" d="M347.378 922.83l7.066-21.188 22.334-0.174c1.73-0.014 2.448-2.222 1.056-3.25l-17.968-13.268 6.738-21.294c0.522-1.65-1.356-3.014-2.764-2.008l-18.17 12.988-18.17-12.988c-1.408-1.006-3.286 0.358-2.764 2.008l6.738 21.294-17.968 13.268c-1.392 1.028-0.674 3.236 1.056 3.25l22.334 0.174 7.066 21.188c0.546 1.642 2.868 1.642 3.416 0z" />
<glyph unicode="&#xe90a;" d="M242.314 892.344l7.066-21.188 22.334-0.174c1.73-0.014 2.448-2.222 1.056-3.25l-17.968-13.268 6.738-21.294c0.522-1.65-1.356-3.014-2.764-2.008l-18.17 12.988-18.17-12.988c-1.408-1.006-3.286 0.358-2.764 2.008l6.738 21.294-17.968 13.268c-1.392 1.028-0.674 3.236 1.056 3.25l22.334 0.174 7.066 21.188c0.548 1.642 2.87 1.642 3.416 0z" />
<glyph unicode="&#xe90b;" d="M455 892.344l7.066-21.188 22.334-0.174c1.73-0.014 2.448-2.222 1.056-3.25l-17.968-13.268 6.738-21.294c0.522-1.65-1.356-3.014-2.764-2.008l-18.17 12.988-18.17-12.988c-1.408-1.006-3.286 0.358-2.764 2.008l6.738 21.294-17.968 13.268c-1.392 1.028-0.674 3.236 1.056 3.25l22.334 0.174 7.066 21.188c0.546 1.642 2.868 1.642 3.416 0z" />
<glyph unicode="&#xe90c;" d="M525.462 812.226l7.066-21.188 22.334-0.174c1.73-0.014 2.448-2.222 1.056-3.25l-17.968-13.268 6.738-21.294c0.522-1.65-1.356-3.014-2.764-2.008l-18.17 12.988-18.17-12.988c-1.408-1.006-3.286 0.358-2.764 2.008l6.738 21.294-17.968 13.268c-1.392 1.028-0.674 3.236 1.056 3.25l22.334 0.174 7.066 21.188c0.546 1.642 2.868 1.642 3.416 0z" />
<glyph unicode="&#xe90d;" d="M165.99 812.226l7.066-21.188 22.334-0.174c1.73-0.014 2.448-2.222 1.056-3.25l-17.968-13.268 6.738-21.294c0.522-1.65-1.356-3.014-2.764-2.008l-18.17 12.988-18.17-12.988c-1.408-1.006-3.286 0.358-2.764 2.008l6.738 21.294-17.968 13.268c-1.392 1.028-0.674 3.236 1.056 3.25l22.334 0.174 7.066 21.188c0.548 1.642 2.868 1.642 3.416 0z" />
<glyph unicode="&#xe90e;" d="M545.726 707.138l7.066-21.188 22.334-0.174c1.73-0.014 2.448-2.222 1.056-3.25l-17.968-13.268 6.738-21.296c0.522-1.65-1.356-3.014-2.764-2.008l-18.17 12.988-18.17-12.988c-1.408-1.006-3.286 0.358-2.764 2.008l6.738 21.296-17.968 13.268c-1.392 1.028-0.674 3.236 1.056 3.25l22.334 0.174 7.066 21.188c0.546 1.64 2.868 1.64 3.416 0z" />
<glyph unicode="&#xe90f;" d="M138.61 707.138l7.066-21.188 22.334-0.174c1.73-0.014 2.448-2.222 1.056-3.25l-17.968-13.268 6.738-21.296c0.522-1.65-1.356-3.014-2.764-2.008l-18.17 12.988-18.17-12.988c-1.408-1.006-3.286 0.358-2.764 2.008l6.738 21.296-17.968 13.268c-1.392 1.028-0.674 3.236 1.056 3.25l22.334 0.174 7.066 21.188c0.548 1.64 2.868 1.64 3.416 0z" />
<glyph unicode="&#xe910;" d="M0 960h341.34v-1024h-341.34v1024z" />
<glyph unicode="&#xe911;" d="M341.34 960h341.34v-1024h-341.34v1024z" />
<glyph unicode="&#xe912;" d="M682.66 960h341.34v-1024h-341.34v1024z" />
<glyph unicode="&#xe913;" d="M558.076 413.386h-92.152l5.12 10.24h81.912z" />
<glyph unicode="&#xe914;" d="M558.076 495.298h-92.152l5.12-10.24h81.912z" />
<glyph unicode="&#xe915;" d="M537.598 490.178h-51.196l10.24 10.24h30.716z" />
<glyph unicode="&#xe916;" d="M471.040 438.98h15.358v-10.238h-15.358v10.238z" />
<glyph unicode="&#xe917;" d="M471.040 454.34h15.358v-10.238h-15.358v10.238z" />
<glyph unicode="&#xe918;" d="M471.040 479.94h15.358v-10.238h-15.358v10.238z" />
<glyph unicode="&#xe919;" d="M471.040 464.58h15.358v-5.12h-15.358v5.12z" />
<glyph unicode="&#xe91a;" d="M537.6 438.98h15.358v-10.238h-15.358v10.238z" />
<glyph unicode="&#xe91b;" d="M537.6 454.34h15.358v-10.238h-15.358v10.238z" />
<glyph unicode="&#xe91c;" d="M537.6 479.94h15.358v-10.238h-15.358v10.238z" />
<glyph unicode="&#xe91d;" d="M537.6 464.58h15.358v-5.12h-15.358v5.12z" />
<glyph unicode="&#xe91e;" d="M476.16 520.9h10.238v-20.478h-10.238v20.478z" />
<glyph unicode="&#xe91f;" d="M486.402 526.014h-10.238v5.6c0 2.562 2.078 4.64 4.64 4.64h0.96c2.562 0 4.64-2.078 4.64-4.64v-5.6h-0.002z" />
<glyph unicode="&#xe920;" d="M537.6 520.9h10.238v-20.478h-10.238v20.478z" />
<glyph unicode="&#xe921;" d="M547.836 526.014h-10.238v5.6c0 2.562 2.078 4.64 4.64 4.64h0.96c2.562 0 4.64-2.078 4.64-4.64v-5.6h-0.002z" />
<glyph unicode="&#xe922;" d="M513.92 479.94h-3.84c-10.25 0-18.558-8.308-18.558-18.558v-32.636h40.956v32.636c0 10.248-8.308 18.558-18.558 18.558z" />
<glyph unicode="&#xe923;" d="M478.106 447.688l-27.874 32.52c0.182 0.524 0.334 1.066 0.334 1.652 0 2.828-2.292 5.12-5.12 5.12s-5.12-2.292-5.12-5.12 2.292-5.12 5.12-5.12c0.308 0 0.576 0.124 0.868 0.174l2.884-3.364-13.992-32.646 15.358-15.358 13.26 30.94 10.394-12.128 3.888 3.33zM453.202 436.992l-12.254 12.256 5.53 12.902 12.254-12.256-5.53-12.902z" />
<glyph unicode="&#xe924;" d="M549.908 444.358l10.394 12.128 13.26-30.94 15.358 15.358-13.992 32.646 2.884 3.364c0.294-0.052 0.56-0.174 0.868-0.174 2.828 0 5.12 2.292 5.12 5.12s-2.292 5.12-5.12 5.12-5.12-2.292-5.12-5.12c0-0.586 0.152-1.128 0.334-1.652l-27.874-32.52 3.888-3.33zM565.398 449.894l12.254 12.256 5.53-12.902-12.254-12.256-5.53 12.902z" />
<glyph unicode="&#xe925;" d="M517.796 530.242c-1.61 0.474-3.042 1.352-3.952 2.762-0.608 0.942-1.224 2.012-1.842 3.25-0.618-1.238-1.234-2.308-1.842-3.25-0.91-1.41-2.342-2.288-3.952-2.762-8.482-2.498-14.684-10.294-14.684-19.586 0-1.778 0.298-3.474 0.724-5.12h39.508c0.426 1.646 0.724 3.34 0.724 5.12-0.002 9.292-6.204 17.088-14.684 19.586z" />
<glyph unicode="&#xe926;" d="M394.68 454.944c-0.26 3.182-0.428 6.39-0.428 9.638 0 6.576 0.596 13.044 1.652 19.39 1.476-1.022 3.022-2.146 4.628-3.408-0.75-5.25-1.162-10.582-1.162-15.984 0-3.786 0.194-7.526 0.56-11.216l10.822-3.252c-0.676 4.74-1.144 9.544-1.144 14.468 0 2.446 0.146 4.868 0.34 7.276 5.652-6.268 10.112-13.84 10.112-22.208 0-0.214 16.424 24.318-13.438 51.408l-0.214-11.518-17.2 0.182c-1.55 0.016-2.912-1.084-3.184-2.61-1.308-7.358-2.012-14.882-2.012-22.528 0-2.174 0.056-4.334 0.164-6.482l10.504-3.156z" />
<glyph unicode="&#xe927;" d="M440.104 557.802c2.238 1.724 2.65 4.94 0.922 7.18-1.732 2.24-4.944 2.644-7.182 0.92-23.17-17.894-39.070-42.478-45.956-70.016l10.552-0.136c6.642 24.372 21.012 46.1 41.664 62.052z" />
<glyph unicode="&#xe928;" d="M433.246 545.032c-11.134-10.904-19.562-23.738-25.296-37.678 3.166-2.6 5.76-5.23 7.914-7.844 5.16 14.214 13.378 27.264 24.548 38.202 2.020 1.98 2.054 5.22 0.076 7.24-1.986 2.026-5.222 2.060-7.242 0.080z" />
<glyph unicode="&#xe929;" d="M415.454 397.46c-7.592 10.894-13.394 23.112-16.994 36.234l5.95-2.186c3.718-11.974 9.358-23.11 16.586-33.032l11.298 2.068c-6.38 7.93-11.624 16.808-15.456 26.398l6.68-2.454c3.81-8.372 8.694-16.066 14.51-22.894l11.76 2.154c-4.624 4.722-8.668 10.034-12.152 15.766l-6.812 13.622c-2.104 4.208-5.852 7.36-10.358 8.712l-41.576 12.494 3.526-10.576c0.774-2.322 2.338-4.258 4.376-5.532 3.258-15.47 9.3-29.924 17.6-42.8l11.062 2.026z" />
<glyph unicode="&#xe92a;" d="M617.59 489.538l-0.214 11.518c-29.864-27.090-13.438-51.622-13.438-51.408 0 8.368 4.46 15.94 10.112 22.208 0.196-2.41 0.34-4.83 0.34-7.276 0-4.924-0.468-9.728-1.144-14.468l10.822 3.252c0.366 3.69 0.56 7.43 0.56 11.216 0 5.402-0.414 10.734-1.162 15.984 1.606 1.262 3.152 2.384 4.628 3.408 1.058-6.346 1.652-12.814 1.652-19.39 0-3.248-0.168-6.456-0.428-9.638l10.502 3.156c0.108 2.148 0.164 4.308 0.164 6.482 0 7.646-0.706 15.17-2.012 22.528-0.272 1.526-1.634 2.626-3.184 2.61l-17.198-0.182z" />
<glyph unicode="&#xe92b;" d="M625.56 495.748l10.552 0.136c-6.888 27.538-22.786 52.122-45.956 70.016-2.238 1.724-5.45 1.32-7.182-0.92-1.728-2.24-1.314-5.454 0.922-7.18 20.652-15.95 35.022-37.678 41.664-62.052z" />
<glyph unicode="&#xe92c;" d="M616.050 507.354c-5.734 13.94-14.162 26.774-25.296 37.678-2.020 1.98-5.256 1.944-7.24-0.080-1.98-2.020-1.944-5.26 0.074-7.24 11.168-10.938 19.386-23.988 24.548-38.202 2.154 2.614 4.748 5.244 7.914 7.844z" />
<glyph unicode="&#xe92d;" d="M639.41 452.63l-35.88-10.782c-4.506-1.352-8.254-4.504-10.358-8.712l-6.812-13.622c-3.484-5.732-7.528-11.046-12.152-15.766l11.76-2.154c5.816 6.828 10.7 14.522 14.51 22.894l6.68 2.454c-3.832-9.59-9.076-18.468-15.456-26.398l11.298-2.068c7.228 9.924 12.866 21.060 16.586 33.032l5.95 2.186c-3.6-13.122-9.404-25.34-16.994-36.234l11.060-2.024c8.3 12.876 14.342 27.33 17.6 42.8 2.036 1.274 3.602 3.21 4.376 5.532l3.526 10.576-5.694-1.714z" />
<glyph unicode="&#xe92e;" d="M565.354 396.028l-0.264-0.234c-14.896-11.496-33.392-18.244-53.090-18.244s-38.194 6.75-53.090 18.244l-0.264 0.234c-1.932 2.126-4.84 3.078-7.656 2.51l-51.618-10.748 11.454-10.040c3.064-2.684 7-3.938 10.914-3.708 9.218-9.18 19.804-16.982 31.446-23.044l-3.354-6.19c18.494-10.058 39.676-15.776 62.168-15.776s43.674 5.718 62.168 15.776l-3.354 6.19c11.64 6.062 22.228 13.864 31.446 23.044 3.914-0.23 7.852 1.024 10.914 3.708l11.454 10.040-51.618 10.748c-2.816 0.568-5.724-0.384-7.656-2.51zM458.080 360.034c-9.28 4.828-17.776 10.926-25.42 17.938l4.97 2.37c6.944-6.144 14.58-11.524 22.876-15.83l-2.426-4.478zM591.34 377.972c-7.644-7.012-16.14-13.11-25.42-17.938l-2.426 4.478c8.298 4.306 15.932 9.686 22.876 15.83l4.97-2.37zM512 362.192c-24.384 0-46.728 8.65-64.318 22.946l5.11 2.436c16.61-12.794 37.25-20.262 59.208-20.262 21.956 0 42.598 7.468 59.208 20.262l5.11-2.436c-17.59-14.296-39.934-22.946-64.318-22.946z" />
<glyph unicode="&#xe92f;" d="M455.824 403.284c2.198-1.86 4.478-3.618 6.854-5.256h98.644c2.376 1.638 4.658 3.398 6.854 5.256l-4.982 4.982h-102.39l-4.98-4.982z" />
<glyph unicode="&#xe930;" d="M0 960h1024v-1024h-1024v1024z" />
<glyph unicode="&#xe931;" d="M1024 536.276h-564.966v423.724h-176.552v-423.724h-282.482v-176.552h282.482v-423.724h176.552v423.724h564.966z" />
<glyph unicode="&#xe932;" d="M1024 483.31h-617.932v476.69h-70.62v-476.69h-335.448v-70.62h335.448v-476.69h70.62v476.69h617.932z" />
<glyph unicode="&#xe933;" d="M0 960h1024v-1024h-1024v1024z" />
<glyph unicode="&#xe934;" d="M806.736 320.422c-14.736 9.264-23.578-5.474-23.578-5.474l-42.948-5.052 21.474 18.104c15.578-1.264 17.684 3.368 21.894 9.684s21.894 3.368 21.894 3.368c-2.526 19.368-26.948 8.422-26.948 8.422-19.79 2.106-23.158-13.894-23.158-13.894l-30.734-23.58-67.644 20.042c7.018 7.73 12.524 15.346 13.328 19.958 1.348 7.744-49.966 20.774-65.684 37.052-15.718 16.282-21.334 42.106-14.034 48.842 7.298 6.736 13.474-12.348 21.332-28.070 7.86-15.72 22.458-28.070 32-20.21 9.544 7.858-10.106 19.648-19.088 36.49s6.736 23.020 14.034 21.336c7.3-1.684 11.79-36.494 29.194-54.458 17.402-17.964 33.122-14.596 34.806-3.368 1.684 11.226-28.724 25.062-34.9 34.608-6.174 9.542-7.766 28.27 2.338 28.828 10.106 0.562 47.156-54.658 78.598-75.79 34.244-23.016 61.754 3.93 57.264 15.158-4.492 11.23-25.264 6.736-49.404 12.914-24.14 6.174-48.842 38.736-56.14 56.7s-1.264 17.964 2.948 16.28c4.21-1.684 20.21-25.264 50.948-43.368 30.736-18.106 52.21-0.842 54.736 3.368s12.236 23.112-19.368 18.668c-35.93-5.052-56.42 16.28-71.158 27.648-14.736 11.368-20.632 26.948-13.894 33.264s28.912-22.174 62.598-31.158c30.942-8.25 43.508 5.052 42.666 17.264-0.842 12.21-8 7.158-42.948 10.526s-59.368 36.21-60.632 38.316c-1.264 2.106-0.842 13.894 16.842 2.526s49.264-18.106 67.79-17.264 22.316 25.684 13.474 29.894c-8.842 4.21-10.948-2.106-31.158-6.316s-58.106 16.422-67.368 26.106c-9.264 9.684 0.842 16 5.474 15.158s34.948-18.526 61.894-17.684 38.316 25.684 37.474 33.264c-0.842 7.578-8.422 13.894-19.79 6.316s-26.526-16.422-51.79-12.21c-25.262 4.21-37.052 21.052-33.684 27.368s27.79-4.632 66.526-0.422 40.422 38.316 36.632 45.052-13.052 4.632-26.106-7.578c-13.052-12.21-38.316-14.736-58.106-14.736s-20.21 9.684-17.264 16.422c2.948 6.736 24 5.052 53.474 14.316s46.316 32.842 50.948 47.578-6.736 26.106-11.368 26.106c-4.632 0-1.684 6.736-21.894-22.316s-73.264-40.42-73.264-40.42c-3.79 7.158-9.684 9.684-9.684 9.684-35.79-7.158-78.96-38.060-78.96-38.060s7.61-24.408-1.902-43.43c-12.244-24.486-54.212-9.194-42.8 29.484 9.504 32.204 46.286 51.674 77.356 55.164 31.070 3.486 32.654 15.218 32.654 15.218s-32.626-10.626-33.208 3.958c6.736-1.368 16.666-1.964 33.524-0.47 25.046 2.218 38.996 19.974 27.9 23.776s-6.34-7.608-25.364-16.486c-13.568-6.332-27.81-3.48-34.936-1.316 6.584 14.376 34.302 7.024 34.302 7.024 0.318 25.046-32.918 16.088-32.918 16.088-14.598 31.44-99.93-5.052-99.93-5.052l20.21-16.28c-49.402-27.512-59.508-79.724-59.508-79.724s-10.106 52.21-59.508 79.72l20.21 16.28c0 0-85.334 36.494-99.93 5.052 0 0-33.236 8.958-32.918-16.088 0 0 27.718 7.352 34.302-7.024-7.126-2.164-21.368-5.016-34.936 1.316-19.024 8.878-14.266 20.29-25.364 16.486-11.096-3.802 2.854-21.56 27.9-23.776 16.858-1.494 26.788-0.898 33.524 0.47-0.582-14.582-33.208-3.958-33.208-3.958s1.586-11.73 32.654-15.218c31.070-3.49 67.852-22.96 77.356-55.164 11.412-38.678-30.556-53.97-42.8-29.484-9.512 19.024-1.902 43.43-1.902 43.43s-43.172 30.902-78.96 38.060c0 0-5.894-2.526-9.684-9.684 0 0-53.052 11.368-73.264 40.422s-17.264 22.316-21.894 22.316-16-11.368-11.368-26.106 21.474-38.316 50.948-47.578c29.474-9.264 50.526-7.578 53.474-14.316 2.948-6.736 2.526-16.422-17.264-16.422s-45.052 2.526-58.106 14.736c-13.052 12.21-22.316 14.316-26.106 7.578-3.79-6.736-2.106-40.842 36.632-45.052 38.736-4.21 63.158 6.736 66.526 0.422 3.368-6.316-8.42-23.158-33.684-27.368-25.262-4.21-40.422 4.632-51.79 12.21s-18.948 1.264-19.79-6.316c-0.842-7.578 10.526-32.422 37.474-33.264s57.264 16.842 61.894 17.684 14.736-5.474 5.474-15.158c-9.264-9.684-47.158-30.316-67.368-26.106s-22.316 10.526-31.158 6.316c-8.842-4.21-5.052-29.052 13.474-29.894s50.106 5.894 67.79 17.264c17.684 11.368 18.106-0.422 16.842-2.526s-25.684-34.948-60.632-38.316-42.106 1.684-42.948-10.526 11.724-25.514 42.666-17.264c33.684 8.984 55.86 37.474 62.598 31.158s0.844-21.89-13.892-33.258-35.228-32.7-71.158-27.648c-31.606 4.444-21.894-14.458-19.368-18.668s24-21.474 54.736-3.368c30.736 18.106 46.736 41.684 50.948 43.368 4.21 1.684 10.246 1.684 2.948-16.28s-32-50.526-56.14-56.7c-24.142-6.178-44.912-1.684-49.404-12.914-4.49-11.226 23.018-38.174 57.264-15.158 31.44 21.132 68.492 76.352 78.598 75.79 10.106-0.56 8.514-19.286 2.338-28.828-6.176-9.546-36.584-23.382-34.9-34.608s17.402-14.596 34.806 3.368 21.894 52.774 29.194 54.458c7.298 1.684 23.016-4.494 14.034-21.336s-28.632-28.632-19.086-36.49c9.542-7.858 24.14 4.49 32 20.21 7.858 15.72 14.034 34.806 21.332 28.070 7.3-6.736 1.684-32.56-14.034-48.842-15.718-16.28-67.032-29.31-65.684-37.052 0.802-4.612 6.31-12.226 13.328-19.958l-67.648-20.046-30.736 23.578c0 0-3.368 16-23.158 13.894 0 0-24.422 10.948-26.948-8.422 0 0 17.684 2.948 21.894-3.368s6.316-10.948 21.894-9.684l21.474-18.106-42.948 5.052c0 0-8.842 14.736-23.578 5.474 0 0-18.526 5.894-23.158-11.79 0 0 16 2.948 20.21 0.842 0 0 6.316-14.316 26.526-5.894l42.526-2.106-24-11.79c0 0-30.316 9.684-29.052-15.578 0 0-8.842-10.106-0.842-20.21 0 0 1.684 10.948 9.684 15.578 0 0 15.578-6.316 25.684 12.21l30.736 18.526 30.316-14.736c0 0-0.842-16.422 21.474-9.684 0 0 7.578-5.052 9.684-11.79 0 0 9.684 10.526-5.894 22.736 0 0-3.79 14.316-22.316 8.842l-17.264 8.842 63.876 18.954c11.058-10.532 22.992-19.168 27.172-17.72 8.244 2.852 14.584 11.412 20.29 23.46 5.708 12.050 31.386 53.894 44.068 53.576 12.68-0.316 18.388-10.46 15.218-28.532-3.17-18.070-27.884-52.684-43.884-59.842s-18.526-10.526-33.264-9.264c-14.736 1.264-19.79-5.052-16.422-13.474s19.944-13.776 36.21-7.578c17.684 6.736 24.422 16 31.158 10.526s-7.158-25.264-26.106-31.158c-18.948-5.894-33.264-2.106-30.316-13.894 2.948-11.79 23.158-12.632 36.21-5.052 13.052 7.578 27.79 28.632 31.578 21.894 3.79-6.736 1.264-24-11.368-33.264s-27-3.812-29.894-12.21c-4.21-12.21 10.526-20.21 21.894-15.578s24.422 18.948 30.316 31.578 16.842 1.684 13.474-10.106c-3.368-11.79-0.56-21.474-24.702-40l44.916-69.048 44.912 69.052c-24.142 18.526-21.334 28.21-24.702 40s7.578 22.736 13.474 10.106 18.948-26.948 30.316-31.578c11.368-4.632 26.106 3.368 21.894 15.578-2.894 8.398-17.262 2.948-29.894 12.21-12.632 9.264-15.158 26.526-11.368 33.264 3.79 6.736 18.526-14.316 31.578-21.894s33.262-6.736 36.21 5.052c2.948 11.79-11.368 8-30.316 13.894s-32.842 25.684-26.106 31.158 13.474-3.79 31.158-10.526c16.266-6.198 32.842-0.842 36.21 7.578 3.368 8.422-1.684 14.736-16.422 13.474-14.736-1.264-17.264 2.106-33.264 9.264s-40.714 41.774-43.884 59.842c-3.172 18.072 2.536 28.218 15.218 28.532 12.68 0.32 38.36-41.526 44.068-53.576 5.706-12.050 12.046-20.608 20.29-23.46 4.18-1.448 16.114 7.188 27.172 17.72l63.874-18.954-17.262-8.842c-18.526 5.474-22.316-8.842-22.316-8.842-15.578-12.21-5.894-22.736-5.894-22.736 2.106 6.736 9.684 11.79 9.684 11.79 22.316-6.736 21.474 9.684 21.474 9.684l30.316 14.736 30.736-18.526c10.106-18.526 25.684-12.21 25.684-12.21 8-4.632 9.684-15.578 9.684-15.578 8 10.106-0.842 20.21-0.842 20.21 1.264 25.264-29.052 15.578-29.052 15.578l-24 11.79 42.526 2.106c20.21-8.422 26.526 5.894 26.526 5.894 4.21 2.106 20.21-0.842 20.21-0.842-4.628 17.684-23.156 11.79-23.156 11.79z" />
<glyph unicode="&#xe935;" d="M0 960h512v-1024h-512v1024z" />
<glyph unicode="&#xe936;" d="M512 960h512v-1024h-512v1024z" />
<glyph unicode="&#xe937;" d="M642.066 545.97l-46.72-61.118-72.95 24.418c-4.080 1.366-7.548-3.248-5.106-6.788l43.69-63.32-45.766-61.834c-2.56-3.458 0.756-8.182 4.878-6.954l73.722 21.984 44.666-62.634c2.498-3.502 8.016-1.81 8.12 2.49l1.872 76.906 73.372 23.124c4.102 1.294 4.198 7.064 0.14 8.492l-72.564 25.546 0.68 76.926c0.038 4.306-5.42 6.18-8.034 2.762z" />
<glyph unicode="&#xe938;" d="M560.434 262.918c-102.136 0-184.99 82.854-184.99 185.082 0 102.042 82.854 185.080 184.99 185.080 38 0 73.044-11.688 102.248-31.468 4.472-3.030 9.576 2.848 5.832 6.742-43.646 45.378-105.422 73.062-173.912 70.724-117.672-4.016-215.088-98.36-222.606-215.86-8.612-134.588 97.956-246.434 230.638-246.434 65.358 0 124.096 27.324 166.044 71.012 3.706 3.86-1.41 9.648-5.84 6.644-29.234-19.82-64.336-31.522-102.404-31.522z" />
<glyph unicode="&#xe939;" d="M0 960h1024v-1024h-1024v1024z" />
<glyph unicode="&#xe93a;" d="M1024-7.286l-910.574 455.286 910.574 455.286v56.714l-1024-512 1024-512z" />
<glyph unicode="&#xe93b;" d="M113.426 448l910.574-455.286v910.572z" />
<glyph unicode="&#xe93c;" d="M901.166 537.538c0 0 62.952-2.668 68.82 2.134s6.936 36.812-13.87 41.612c-20.806 4.802-77.356-26.142-77.356-26.142l22.406-17.604z" />
<glyph unicode="&#xe93d;" d="M777.928 487.922c0 0-0.712-1.778-1.068-9.602s1.068-28.098 25.608-36.99l-5.69-23.83 25.964-15.65c0 0 19.206 28.454 20.272 52.282 1.068 23.832-65.086 33.79-65.086 33.79z" />
<glyph unicode="&#xe93e;" d="M700.038 503.928l10.136 10.136c0 0-20.75-12.66-28.63-1.244-10.314 14.938 3.556 30.588 17.96 37.522 14.404 6.936 43.214 1.6 43.214 1.6l18.138-46.414-54.95-34.678-5.868 33.078z" />
<glyph unicode="&#xe93f;" d="M870.224 592.488l49.082 5.868c0 0-14.404-20.806-42.68-36.278 0 0 29.342 0 37.878-10.136s-8.536-19.74-14.938-22.94-61.886-37.344-61.886-37.344l-49.616 5.868 82.16 94.962z" />
<glyph unicode="&#xe940;" d="M906.678 630.188c0 0 10.67 24.896 10.314 42.324l-35.922-24.896c0 0 8.18 3.912 5.334 18.138l-117.368-63.664-23.83-42.324 72.556-22.406 88.916 92.828z" />
<glyph unicode="&#xe941;" d="M818.208 436.174l-12.27-19.472c0 0-21.874 4.802-29.342-0.534s-8.27-25.342 4.802-26.942c0 0 9.070-5.602 14.404-1.068 0 0 10.936-4.268 12.804 2.668s-0.534 12.804-0.534 12.804h7.736l13.604 24.274-11.204 8.27z" />
<glyph unicode="&#xe942;" d="M708.574 478.32c0 0 34.144 17.072 34.144 42.68s-31.654 27.030-57.262 18.494c0 0-15.294 12.092-2.49 24.186 17.552 16.578 93.896 51.216 93.896 51.216l-8.536-42.68c0 0 30.41-16.004 42.68-8.536 10.312 6.276 110.966 85.36 110.966 85.36s-8.536-42.68-68.288-85.36l-6.332-31.656c-1.39-6.954-5.914-12.878-12.258-16.050l-24.090-12.044c0 0 68.288-8.536 68.288-17.072s-17.072-51.216-51.216-68.288l-17.072 17.072 8.536 25.608c0 0-25.608 8.536-42.68 17.072 0 0-25.608-8.536-42.68-8.536s-25.606 8.534-25.606 8.534z" />
<glyph unicode="&#xe943;" d="M657.358 435.64v17.736c0 5.040 2.002 9.874 5.566 13.438l37.114 37.114 8.536-17.072h34.144l-8.536-8.536v-8.536l-42.68-25.608-34.144-8.536z" />
<glyph unicode="&#xe944;" d="M674.43 444.176h-17.072c0 0-17.072-25.608 0-25.608 0 0 25.608 17.072 34.144 25.608 0 0 0 8.536-17.072 0z" />
<glyph unicode="&#xe945;" d="M882.646 406.312h-118.004c-0.972 1.048-2.334 1.724-3.876 1.724 0 0-20.67 8.566-23.61 8.566h-2.422c-2.94 0-5.322-2.382-5.322-5.322v-4.968h-26.976v4.968c0 2.94-2.382 5.322-5.322 5.322h-2.422c-2.94 0-5.322-2.382-5.322-5.322v-0.090c-11.562 0.472-36.28 1.944-49.082 6.212l-68.288-17.072 68.288-17.072c12.802 4.268 37.52 5.742 49.082 6.214v-0.090c0-2.938 2.382-5.322 5.322-5.322h2.422c2.94 0 5.322 2.384 5.322 5.322v4.968h26.976v-4.968c0-2.938 2.384-5.322 5.322-5.322h2.422c2.94 0 23.61 8.566 23.61 8.566 1.542 0 2.902 0.676 3.874 1.724h118.004c3.304 0 5.982 2.678 5.982 5.982 0.002 3.302-2.676 5.98-5.98 5.98z" />
<glyph unicode="&#xe946;" d="M877.514 383.358c-7.114 1.424-88.56-12.804-88.56-12.804s-4.98 4.98 9.958 18.85l-7.114 1.778c0 0-15.648-11.026-22.050-12.448-5.514-1.226-17.83-7.212-20.476-15.208l-49.59-8.266 1.066-4.268 48.642 5.7c2.322-7.474 9.966-8.996 15.378-6.768 0 0 7.114-2.846 13.516 2.134 0 0 12.804-2.134 13.516 9.602l89.272 13.516c-0.002 0.002 3.556 6.758-3.558 8.182z" />
<glyph unicode="&#xe947;" d="M827.010 323.25c0 0-6.758-8.892-23.474-1.066s-36.278-0.712-46.948 1.778-26.674 8.892-41.612 3.2c-14.938-5.69-23.118-5.334-19.918 1.778 3.2 7.114 4.98 12.448 0 14.938l5.69 7.114-1.066 4.268c0 0-28.452 11.026-47.658-4.268s-13.516-50.148 18.494-52.638c0 0 9.958-12.448 34.5-8.892 0 0 16.004-11.026 43.39-6.046 0 0 1.066-3.2 18.85-1.778s37.7-0.712 34.144-12.804c0 0 13.16 2.49 5.334 14.582 0 0 15.65 0.712 26.32-8.536 0 0 0.712 10.67-9.602 16.36 0 0 17.428 6.046 27.030 0 0 0-6.402 13.516-23.474 11.736 0 0 12.448 9.958 18.138 7.468 0 0-5.334 6.402-20.984 0 0 0.002 9.96 6.048 2.846 12.806z" />
<glyph unicode="&#xe948;" d="M0 960h341.34v-1024h-341.34v1024z" />
<glyph unicode="&#xe949;" d="M341.34 960h341.34v-1024h-341.34v1024z" />
<glyph unicode="&#xe94a;" d="M682.66 960h341.34v-1024h-341.34v1024z" />
<glyph unicode="&#xe94b;" d="M632.046 390.712c0 5.124-4.154 9.278-9.278 9.278-1.112 0-2.164-0.228-3.154-0.586-4.594 4.086-12.914 14.22-4.562 28.528 1.128-0.878 2.528-1.42 4.070-1.42 3.682 0 6.666 2.984 6.666 6.666 0 2.908-1.874 5.356-4.472 6.266 6.862 3.5 16.65 10.93 16.144 24.822-0.716 19.704-16.858 30.58-26.762 26.23 0.036 0.276 0.084 0.548 0.084 0.832 0 3.63-2.942 6.572-6.572 6.572-2.232 0-4.196-1.118-5.384-2.818-0.404 1.97-0.356 5.628 4.224 9.584 8.506 7.346 18.172 24.938 0.58 37.31-9.742 6.852-28.364 10.132-34.602 0.774-2.706-4.060-0.536-9.89 2.552-11.2-4.978-2.778-14.422-6.942-21.884-3.686-10.632 4.64-4.492 13.852-2.126 17.978 4.156 7.25 1.546 19.138-12.372 19.138-9.278 0-13.918-9.278-23.198-9.278s-13.918 9.278-23.198 9.278c-13.918 0-16.528-11.888-12.372-19.138 2.364-4.126 8.506-13.338-2.126-17.978-7.462-3.256-16.904 0.908-21.884 3.686 3.088 1.31 5.26 7.14 2.552 11.2-6.238 9.358-24.86 6.078-34.602-0.774-17.592-12.372-7.926-29.964 0.58-37.31 4.58-3.954 4.628-7.612 4.224-9.584-1.188 1.7-3.152 2.818-5.384 2.818-3.63 0-6.572-2.942-6.572-6.572 0-0.286 0.048-0.558 0.084-0.832-9.904 4.35-26.044-6.528-26.762-26.23-0.506-13.892 9.282-21.322 16.144-24.822-2.598-0.91-4.472-3.358-4.472-6.266 0-3.682 2.984-6.666 6.666-6.666 1.54 0 2.94 0.544 4.070 1.42 8.352-14.31 0.030-24.444-4.562-28.528-0.988 0.36-2.040 0.586-3.154 0.586-5.124 0-9.278-4.154-9.278-9.278 0-4.812 3.676-8.72 8.364-9.186-6.396-6.568-12.134-21.050 0.336-37.498 13.628-17.978 46.104-16.528 61.762-17.108 9.928-0.368 17.396-5.51 21.542-9.228-2.65-1.634-4.434-4.538-4.434-7.88 0-4.686 3.486-8.522 8-9.15 1.64-2.624 4.53-4.382 7.852-4.382 3.712 0 6.89 2.194 8.374 5.344 4.9-4.040 8.25-5.732 8.25-5.732s3.35 1.692 8.25 5.732c1.484-3.15 4.662-5.344 8.374-5.344 3.322 0 6.212 1.758 7.852 4.382 4.514 0.628 8 4.464 8 9.15 0 3.342-1.782 6.246-4.434 7.88 4.146 3.718 11.614 8.86 21.542 9.228 15.658 0.58 48.134-0.87 61.762 17.108 12.468 16.448 6.732 30.93 0.336 37.498 4.688 0.464 8.364 4.374 8.364 9.186z" />
<glyph unicode="&#xe94c;" d="M428.49 509.888v-134.544c0-15.374 12.462-27.836 27.836-27.836h37.116c13.918 0 18.558-9.278 18.558-9.278s4.64 9.278 18.558 9.278h37.116c15.374 0 27.836 12.464 27.836 27.836v134.544c0 2.562-2.078 4.64-4.64 4.64h-157.742c-2.562 0-4.638-2.078-4.638-4.64z" />
<glyph unicode="&#xe94d;" d="M437.76 505.24h69.592v-69.592h-69.592v69.592z" />
<glyph unicode="&#xe94e;" d="M507.36 356.786h-6.524c-34.832 0-63.068 28.236-63.068 63.068v6.524h69.592v-69.592z" />
<glyph unicode="&#xe94f;" d="M523.164 356.786h-6.524v69.592h69.592v-6.524c0-34.832-28.236-63.068-63.068-63.068z" />
<glyph unicode="&#xe950;" d="M516.64 505.24h9.942v-69.592h-9.942v69.592z" />
<glyph unicode="&#xe951;" d="M526.58 505.24h9.942v-69.592h-9.942v69.592z" />
<glyph unicode="&#xe952;" d="M536.52 505.24h9.942v-69.592h-9.942v69.592z" />
<glyph unicode="&#xe953;" d="M546.46 505.24h9.942v-69.592h-9.942v69.592z" />
<glyph unicode="&#xe954;" d="M556.4 505.24h9.942v-69.592h-9.942v69.592z" />
<glyph unicode="&#xe955;" d="M576.28 505.24h9.942v-69.592h-9.942v69.592z" />
<glyph unicode="&#xe956;" d="M566.34 505.24h9.942v-69.592h-9.942v69.592z" />
<glyph unicode="&#xe957;" d="M460.96 426.38h7.732v-69.592h-7.732v69.592z" />
<glyph unicode="&#xe958;" d="M468.7 426.38h7.732v-69.592h-7.732v69.592z" />
<glyph unicode="&#xe959;" d="M484.16 426.38h7.732v-69.592h-7.732v69.592z" />
<glyph unicode="&#xe95a;" d="M476.44 426.38h7.732v-69.592h-7.732v69.592z" />
<glyph unicode="&#xe95b;" d="M499.62 426.38h7.732v-69.592h-7.732v69.592z" />
<glyph unicode="&#xe95c;" d="M491.9 426.38h7.732v-69.592h-7.732v69.592z" />
<glyph unicode="&#xe95d;" d="M445.502 360.326v66.052h-7.732v-51.034c-0.002-6.196 3.064-11.648 7.732-15.018z" />
<glyph unicode="&#xe95e;" d="M453.234 357.096v69.28h-7.732v-66.052c2.254-1.626 4.874-2.744 7.732-3.228z" />
<glyph unicode="&#xe95f;" d="M453.234 426.378v-69.28c1.010-0.17 2.034-0.312 3.094-0.312h4.64v69.592h-7.734z" />
<glyph unicode="&#xe960;" d="M448.142 439.608c-0.346 0-0.696 0.096-1.006 0.304-4.562 3.020-4.828 6.164-4.58 7.768 0.334 2.166 1.948 3.966 4.106 4.584 2.056 0.578 4.106-0.028 5.494-1.638 2.878-3.348 5.854-4.666 8.358-3.74 1.982 0.736 3.164 2.688 3.164 4.148 0 1.010 0.818 1.828 1.828 1.828s1.828-0.818 1.828-1.828c0-3.194-2.332-6.382-5.548-7.574-2.35-0.868-7.074-1.402-12.4 4.784-0.572 0.66-1.246 0.638-1.718 0.506-0.65-0.186-1.366-0.76-1.5-1.624-0.194-1.26 0.894-2.778 2.984-4.162 0.842-0.556 1.072-1.692 0.516-2.534-0.352-0.532-0.934-0.822-1.526-0.822z" />
<glyph unicode="&#xe961;" d="M497.208 439.608c-0.592 0-1.174 0.29-1.526 0.818-0.556 0.842-0.326 1.978 0.516 2.534 2.090 1.386 3.178 2.902 2.984 4.162-0.134 0.864-0.85 1.438-1.5 1.624-0.476 0.132-1.15 0.154-1.718-0.506-5.324-6.19-10.052-5.654-12.4-4.784-3.214 1.192-5.548 4.38-5.548 7.574 0 1.010 0.818 1.828 1.828 1.828s1.828-0.818 1.828-1.828c0-1.46 1.184-3.412 3.164-4.148 2.506-0.928 5.48 0.392 8.358 3.74 1.386 1.618 3.44 2.22 5.494 1.638 2.16-0.618 3.774-2.416 4.106-4.584 0.248-1.602-0.018-4.748-4.58-7.768-0.31-0.2-0.66-0.3-1.006-0.3z" />
<glyph unicode="&#xe962;" d="M447.134 437.438c-0.386 0-0.774 0.122-1.104 0.372-0.804 0.614-0.958 1.76-0.348 2.562l39.728 52.238c0.38 0.686 0.522 1.634 0.688 2.73 0.306 2.052 0.69 4.604 3.824 6.49 2.042 1.224 4.466 1.188 6.49-0.104 2.234-1.428 3.554-4.088 3.282-6.618-0.164-1.538-1.062-4.344-5.224-5.886-0.952-0.354-1.998 0.136-2.348 1.078-0.352 0.946 0.132 1.998 1.078 2.348 1.214 0.45 2.696 1.31 2.862 2.848 0.124 1.168-0.54 2.46-1.616 3.148-0.604 0.386-1.548 0.714-2.638 0.050-1.658-0.996-1.822-2.088-2.094-3.898-0.192-1.282-0.41-2.734-1.268-4.212l-39.854-52.426c-0.36-0.47-0.906-0.72-1.458-0.72z" />
<glyph unicode="&#xe963;" d="M472.816 494.894l-18.276-21.932 7.31-21.932h21.932l7.31 21.932z" />
<glyph unicode="&#xe964;" d="M472.816 497.75l-20.332-24.398 8.050-24.148h24.566l8.050 24.148-20.334 24.398zM456.596 472.574l14.392 17.272v-36.986h-7.82l-6.572 19.714zM482.464 452.858h-7.82v36.986l14.392-17.272-6.572-19.714z" />
<glyph unicode="&#xe965;" d="M569.124 404.406l0.276 4.056c0 0 3.594 2.58 1.844 4.976-1.752 2.396-3.778 2.856-8.018 2.304s-10.876-0.46-13.732-0.646c-2.858-0.184-4.332-1.752-8.848-0.46l1.198 2.764c0 0-2.12-0.184-3.41-0.83-0.704-0.352-2.396 1.936-4.056 1.566-1.654-0.368-3.318-3.778-5.898-5.53l1.382-2.764c0 0 1.566 0.738 2.764-0.092s1.566-1.382 3.594-1.382l1.29-0.552c0 0-0.46-2.95 1.474-4.332 0 0-2.212-2.856-1.936-3.318 0.276-0.46 2.12-3.962 2.856-5.99l1.658 3.134c0 0-2.488 2.212-2.028 2.488s2.12 0.646 1.844 1.382 1.29-0.092 3.042-0.368c0 0 0.092-2.764 0.46-3.134s0.922-1.844 0.83-3.41-1.474-2.028-1.474-2.028l2.488-0.738c0 0 0.646 0.922 1.106 0.83 0 0-0.184 7.65 0.83 8.848 0 0 5.99-1.198 8.756 0.276 0 0 0.354-0.446 1.044-0.87-0.276-0.642-0.51-1.284-0.406-1.47 0.232-0.416 0.972-0.37 1.156 0.092 0.070 0.174 0.178 0.532 0.288 0.902 0.334-0.11 0.7-0.196 1.118-0.238-0.038-0.582-0.044-1.118 0.090-1.244 0.35-0.322 1.038-0.048 1.070 0.45 0.010 0.162 0.004 0.468-0.004 0.796 0.476 0.040 0.984 0.124 1.544 0.29l-3.134-5.162-1.566-0.646 2.028-1.014 1.844 0.738c0 0 1.752 4.424 4.608 5.714 0 0 1.936-4.608-0.46-7.096l2.12-1.198 1.014 2.12c0 0-0.368 4.148 1.014 6.82l-1.66 3.966z" />
<glyph unicode="&#xe966;" d="M534.416 417.576c0 0-0.926 0.878-1.156 2.036-0.232 1.156-0.508 1.666-1.526 1.99 0 0 0.648-0.74 0.556-1.896s0-2.73 0.648-3.238l1.478 1.108z" />
<glyph unicode="&#xe967;" d="M542.466 414.314c0 0-1.258-4.278-4.954-6.498l-1.29 0.552c0 0 3.944 3.372 4.424 6.266l1.82-0.32z" />
<glyph unicode="&#xe968;" d="M536.174 416.558c-0.132 0.138 1.62 0.648 1.202 2.036-0.416 1.388-0.416 2.406 0.416 3.054 0 0 0.092-1.156 0.74-1.896s1.018-2.59-0.046-3.654c0.002-0.002-1.062-0.836-2.312 0.46z" />
<glyph unicode="&#xe969;" d="M536.376 403.946v0c-0.222 0.11-0.312 0.376-0.204 0.598l0.56 1.138c0.328 0.666 0.11 1.494-0.532 1.864-0.706 0.406-1.594 0.126-1.948-0.592l-0.58-1.18c-0.108-0.222-0.376-0.312-0.598-0.204l-0.348-0.708c0 0 0.512-0.252 1.132-0.556l-0.012-0.026c-0.14-0.286-0.022-0.634 0.264-0.774s0.634-0.022 0.774 0.264l0.012 0.026c0.62-0.306 1.132-0.556 1.132-0.556l0.348 0.706z" />
<glyph unicode="&#xe96a;" d="M540.848 396.156l1.386-0.276-1.156-3.564-1.17 1.86z" />
<glyph unicode="&#xe96b;" d="M544.24 392.24l-0.848-1.496h3.33l0.006 0.758z" />
<glyph unicode="&#xe96c;" d="M560.644 393.346v-0.89h-3.78l1.83 1.828z" />
<glyph unicode="&#xe96d;" d="M566.636 392.7l-1.868-1.866h3.928l0.058 0.668z" />
<glyph unicode="&#xe96e;" d="M569.124 375.528l0.276 4.056c0 0 3.594 2.58 1.844 4.976-1.752 2.396-3.778 2.856-8.018 2.304s-10.876-0.46-13.732-0.646c-2.858-0.184-4.332-1.752-8.848-0.46l1.198 2.764c0 0-2.12-0.184-3.41-0.83-0.704-0.352-2.396 1.936-4.056 1.566-1.654-0.368-3.318-3.778-5.898-5.53l1.382-2.764c0 0 1.566 0.738 2.764-0.092s1.566-1.382 3.594-1.382l1.29-0.552c0 0-0.46-2.95 1.474-4.332 0 0-2.212-2.856-1.936-3.318 0.276-0.46 2.12-3.962 2.856-5.99l1.658 3.134c0 0-2.488 2.212-2.028 2.488s2.12 0.646 1.844 1.382 1.29-0.092 3.042-0.368c0 0 0.092-2.764 0.46-3.134s0.922-1.844 0.83-3.41-1.474-2.028-1.474-2.028l2.488-0.738c0 0 0.646 0.922 1.106 0.83 0 0-0.184 7.65 0.83 8.848 0 0 5.99-1.198 8.756 0.276 0 0 0.354-0.446 1.044-0.87-0.276-0.642-0.51-1.284-0.406-1.47 0.232-0.416 0.972-0.37 1.156 0.092 0.070 0.174 0.178 0.532 0.288 0.902 0.334-0.11 0.7-0.196 1.118-0.238-0.038-0.582-0.044-1.118 0.090-1.244 0.35-0.322 1.038-0.048 1.070 0.45 0.010 0.162 0.004 0.468-0.004 0.796 0.476 0.040 0.984 0.124 1.544 0.29l-3.134-5.162-1.566-0.646 2.028-1.014 1.844 0.738c0 0 1.752 4.424 4.608 5.714 0 0 1.936-4.608-0.46-7.096l2.12-1.198 1.014 2.12c0 0-0.368 4.148 1.014 6.82l-1.66 3.966z" />
<glyph unicode="&#xe96f;" d="M534.416 388.698c0 0-0.926 0.878-1.156 2.036-0.232 1.156-0.508 1.666-1.526 1.99 0 0 0.648-0.74 0.556-1.896s0-2.73 0.648-3.238l1.478 1.108z" />
<glyph unicode="&#xe970;" d="M542.466 385.436c0 0-1.258-4.278-4.954-6.498l-1.29 0.552c0 0 3.944 3.372 4.424 6.266l1.82-0.32z" />
<glyph unicode="&#xe971;" d="M536.174 387.68c-0.132 0.138 1.62 0.648 1.202 2.036-0.416 1.388-0.416 2.406 0.416 3.054 0 0 0.092-1.156 0.74-1.896s1.018-2.59-0.046-3.654c0.002-0.002-1.062-0.834-2.312 0.46z" />
<glyph unicode="&#xe972;" d="M536.376 375.068v0c-0.222 0.11-0.312 0.376-0.204 0.598l0.56 1.138c0.328 0.666 0.11 1.494-0.532 1.864-0.706 0.406-1.594 0.126-1.948-0.592l-0.58-1.18c-0.108-0.222-0.376-0.312-0.598-0.204l-0.348-0.708c0 0 0.512-0.252 1.132-0.556l-0.012-0.026c-0.14-0.286-0.022-0.634 0.264-0.774s0.634-0.022 0.774 0.264l0.012 0.026c0.62-0.306 1.132-0.556 1.132-0.556l0.348 0.706z" />
<glyph unicode="&#xe973;" d="M540.848 367.28l1.386-0.278-1.156-3.562-1.17 1.858z" />
<glyph unicode="&#xe974;" d="M544.24 363.362l-0.848-1.496h3.33l0.006 0.76z" />
<glyph unicode="&#xe975;" d="M560.644 364.468v-0.89h-3.78l1.83 1.828z" />
<glyph unicode="&#xe976;" d="M566.636 363.824l-1.868-1.868h3.928l0.058 0.67z" />
<glyph unicode="&#xe977;" d="M0 960h1024v-512h-1024v512z" />
<glyph unicode="&#xe978;" d="M0 448h1024v-512h-1024v512z" />
<glyph unicode="&#xe979;" d="M450.654 673l18.424-55.242 58.232-0.452c4.512-0.034 6.382-5.792 2.752-8.472l-46.846-34.594 17.566-55.522c1.36-4.302-3.536-7.86-7.208-5.236l-47.374 33.864-47.376-33.862c-3.67-2.624-8.568 0.934-7.208 5.236l17.566 55.522-46.846 34.594c-3.63 2.68-1.758 8.438 2.752 8.472l58.232 0.452 18.424 55.242c1.43 4.278 7.482 4.278 8.91-0.002z" />
<glyph unicode="&#xe97a;" d="M699.7 203.962c0 0-333.366 251.49-343.208 259.758-15.21 12.776-26.946 35.37-27.51 62.878 0 0-35.952-36.828-28.912-74.948 8.14-44.070 33.402-59.79 65.964-81.124 22.884-14.992 204.794-129.722 310.986-196.648l22.68 30.084z" />
<glyph unicode="&#xe97b;" d="M799.44 130.246c-4.346 3.104-39.258 28.908-87.702 64.798l-17.58-31.966c35.566-22.412 59.246-37.324 59.246-37.324s3.368-43.79 38.736-36.492c12.754 2.632 23.018 29.756 7.3 40.984z" />
<glyph unicode="&#xe97c;" d="M511.582 246.364c-25.2-8.87-52.19-13.942-80.422-13.942-71.558 0-135.672 31.176-180.064 80.468l-39.466-35.518c13.226-14.69 27.35-28.532 43.27-40.348l-7.858-13.61 58.342-33.684 7.724 13.38c26.358-11.464 54.69-19.176 84.368-22.538v-15.518h67.368v15.518c29.678 3.362 58.010 11.074 84.368 22.538l7.724-13.38 23.186 13.386c-22.642 14.278-45.836 28.914-68.54 43.248z" />
<glyph unicode="&#xe97d;" d="M725.536 508.632c-3.362 29.678-11.074 58.010-22.538 84.366l13.38 7.726-33.684 58.344-13.61-7.858c-17.424 23.478-38.184 44.238-61.664 61.662l7.858 13.61-58.342 33.684-7.726-13.38c-21.864 9.51-45.144 16.264-69.366 20.268l-8.854-53.126c114.95-19.038 202.696-118.634 202.696-238.98 0-64.802-25.572-123.524-66.98-167.032 14.324-10.816 28.542-21.55 42.594-32.158 6.81 7.454 13.748 14.798 19.784 22.93l13.61-7.858 33.684 58.342-13.38 7.726c11.464 26.356 19.176 54.69 22.538 84.366h15.518v67.368h-15.518z" />
<glyph unicode="&#xe97e;" d="M0 960h1024v-1024h-1024v1024z" />
<glyph unicode="&#xe97f;" d="M188.632 959.908h-188.632v-39.954l188.632-123.586z" />
<glyph unicode="&#xe980;" d="M0 823.31v-52.034h79.42z" />
<glyph unicode="&#xe981;" d="M0 636.54v-52.034l79.42 52.034z" />
<glyph unicode="&#xe982;" d="M512 919.954v39.954h-188.632v-163.54z" />
<glyph unicode="&#xe983;" d="M512 584.506v52.034h-79.42z" />
<glyph unicode="&#xe984;" d="M323.368 611.448v-163.54h188.632v39.954z" />
<glyph unicode="&#xe985;" d="M512 771.276v52.034l-79.42-52.034z" />
<glyph unicode="&#xe986;" d="M0 487.862v-39.954h188.632v163.54z" />
<glyph unicode="&#xe987;" d="M512 487.862v39.928l-167.536 108.75h49.496l118.040-76.622v24.588l-79.42 52.034h79.42v26.948h-215.578v-215.58h26.946v163.54z" />
<glyph unicode="&#xe988;" d="M0 663.488v-26.948h79.42l-79.42-52.034v-37.802l138.394 89.836h49.496l-187.89-121.964v-26.714l188.632 123.586v-163.54h26.946v215.58z" />
<glyph unicode="&#xe989;" d="M215.578 959.908h-26.946v-163.54l-188.632 123.586v-43.724l161.684-104.954h-49.496l-112.188 72.824v-20.79l79.42-52.034h-79.42v-26.948h215.578z" />
<glyph unicode="&#xe98a;" d="M512 744.328v26.948h-79.42l79.42 52.034v38.284l-139.136-90.318h-49.496l188.632 122.446v26.232l-188.632-123.586v163.54h-26.946v-215.58z" />
<glyph unicode="&#xe98b;" d="M512 663.488v80.84h-215.578v215.58h-80.844v-215.58h-215.578v-80.84h215.578v-215.58h80.844v215.58z" />
<glyph unicode="&#xe98c;" d="M138.394 636.54l-138.394-89.836v-32.128l187.89 121.964z" />
<glyph unicode="&#xe98d;" d="M344.464 636.54l167.536-108.75v32.128l-118.040 76.622z" />
<glyph unicode="&#xe98e;" d="M161.684 771.276l-161.684 104.954v-32.13l112.188-72.824z" />
<glyph unicode="&#xe98f;" d="M372.864 771.276l139.136 90.318v32.128l-188.632-122.446z" />
<glyph unicode="&#xe990;" d="M663.822 380.7c-2.812-37.498-14.45-275.776 136.73-329.64 151.234 53.878 139.55 292.15 136.73 329.64-18.316-7.18-84.624-28.944-136.73 8.144-52.106-37.080-118.402-15.33-136.73-8.144z" />
<glyph unicode="&#xe991;" d="M874.836 332.628c-8.288 6.446-23.636-5.526-40.826-4.296-15.942 1.138-35.592 17.284-61.13 10.324-7.056 6.498-3.64 21.6-3.64 21.6-17.732-11.46-19.002-27.152-17.888-35.66-12.644-16.708-11.79-42.2-9.432-49.982 3.070-10.13 8.902-11.358 9.822-22.714 0.92-11.358 5.218-7.368 5.218-7.368 8.88 4.98 10.17 14.372 13.904 29.746 14.424-1.842 23.854 11.080 23.854 11.080-9.466-2.97-15.432 2.248-18.686 6.842 0.508 1.518 0.914 2.918 1.496 4.516 10.744 29.468 62.152 21.368 66.918 13.2 8.596-14.734 19.952-20.26 19.952-20.26 0 15.36-11.358 28.854-11.358 28.854 17.192 3.066 21.796 14.118 21.796 14.118zM751.132 269.394c-1.696 0-3.070 1.374-3.070 3.070s1.374 3.070 3.070 3.070 3.070-1.374 3.070-3.070-1.374-3.070-3.070-3.070z" />
<glyph unicode="&#xe992;" d="M824.216 144.062c10.010 3.168 8.86 22.598 19.624 36.056 9.982 12.482 34.426 19.502 43.184 44.482 9.354 2.124 19.852-9.258 19.852-9.258 0.622 21.104-11.578 31.052-19.218 34.962-6.584 19.89-28.062 33.652-35.808 36.124-10.082 3.22-14.402-0.886-24.278 4.798-9.876 5.686-9.028-0.118-9.028-0.118-0.936-10.138 6.066-16.528 16.606-28.324-9.7-10.834-4.408-25.928-4.408-25.928 2.924 9.48 10.606 11.432 16.236 11.506 0.962-1.278 1.884-2.408 2.87-3.794 18.172-25.566-17.666-63.304-27.096-62.594-17.010 1.282-28.004-4.936-28.004-4.936 12.648-8.714 30.204-7.018 30.204-7.018-7.224-15.896-0.736-25.958-0.736-25.958zM842.328 281.806c0.962 1.396 2.874 1.748 4.27 0.786s1.748-2.872 0.786-4.27c-0.962-1.396-2.872-1.748-4.268-0.786-1.398 0.964-1.75 2.874-0.788 4.27z" />
<glyph unicode="&#xe993;" d="M688.884 280.504c-1.338-10.414 16.772-17.546 24.45-32.976 7.122-14.308 3.204-39.436 22.18-57.892-2.010-9.378-16.752-14.112-16.752-14.112 18.882-9.446 33.040-2.564 39.802 2.72 20.814-2.396 42.336 11.296 47.838 17.28 7.164 7.792 5.256 13.438 14.57 20.004s3.692 8.238 3.692 8.238c-8.802 5.116-17.546 1.454-32.684-3.146-5.746 13.358-21.666 14.91-21.666 14.91 7.368-6.642 5.908-14.432 3.606-19.57-1.564-0.334-2.978-0.696-4.65-1.006-30.838-5.726-49.992 42.666-45.38 50.92 8.32 14.89 7.306 27.48 7.306 27.48-13.228-7.806-19.076-24.446-19.076-24.446-11.38 13.248-23.236 11.596-23.236 11.596zM806.214 206.11c0.862-1.46 0.376-3.342-1.084-4.204s-3.342-0.376-4.204 1.084c-0.862 1.46-0.376 3.342 1.084 4.204 1.462 0.86 3.344 0.374 4.204-1.084z" />
<glyph unicode="&#xe994;" d="M800.552 43.254l-1.208 0.418c-170.234 59.218-142.726 339.922-142.428 342.756l0.532 5.072 4.652-2.108c0.802-0.366 79.782-35.396 136.244 6.964l2.208 1.654 2.208-1.654c56.544-42.418 135.452-7.324 136.24-6.964l4.654 2.116 0.532-5.080c0.298-2.834 27.806-283.538-142.428-342.756l-1.206-0.418zM663.822 380.7c-2.812-37.498-14.45-275.776 136.73-329.64 151.234 53.878 139.55 292.15 136.73 329.64-18.316-7.18-84.624-28.944-136.73 8.144-52.106-37.080-118.402-15.33-136.73-8.144z" />
<glyph unicode="&#xe995;" d="M705.736 135.558c20.648-37.446 50.794-68.814 94.816-84.498 44.034 15.688 74.186 47.054 94.836 84.498h-189.652z" />
<glyph unicode="&#xe996;" d="M0.104 959.948h1023.896v-1023.896h-1023.896v1023.896z" />
<glyph unicode="&#xe997;" d="M512.050 835.004l27.070-141.407 79.122 120.286-29.11-141.003 119.132 80.852-80.852-119.13 141.005 29.106-120.288-79.122 141.409-27.068-141.409-27.068 120.288-79.122-141.005 29.108 80.852-119.132-119.132 80.852 29.11-141.005-79.122 120.288-27.070-141.407-27.068 141.407-79.122-120.288 29.108 141.005-119.132-80.852 80.854 119.132-141.005-29.108 120.288 79.122-141.409 27.068 141.409 27.068-120.288 79.122 141.005-29.106-80.854 119.13 119.132-80.852-29.108 141.003 79.122-120.286z" />
<glyph unicode="&#xe998;" d="M0-63.944h512.050l-512.050 1023.892z" />
<glyph unicode="&#xe999;" d="M512.050-63.944h511.842l0.104 1023.892z" />
<glyph unicode="&#xe99a;" d="M309.967 340.222h404.168l107.778 215.559h-619.724z" />
<glyph unicode="&#xe99b;" d="M309.967 340.222l202.083-404.166 202.085 404.166z" />
<glyph unicode="&#xe99c;" d="M0 960h1024v-341.34h-1024v341.34z" />
<glyph unicode="&#xe99d;" d="M0 277.34h1024v-341.34h-1024v341.34z" />
<glyph unicode="&#xe99e;" d="M0 618.66h1024v-341.34h-1024v341.34z" />
<glyph unicode="&#xe99f;" d="M650.004 455.938h-99.378c1.852 1.416 3.318 2.806 4.648 4.118 2.426 2.384 4.354 4.28 9.474 6.394 5.148 2.168 7.844 2.194 11.254 2.248 4.11 0.028 8.76 0.108 16.362 3.25 7.588 3.17 10.902 6.42 13.828 9.292 2.426 2.384 4.354 4.28 9.488 6.42 5.108 2.14 7.79 2.168 11.186 2.194 4.098 0.054 8.746 0.108 16.348 3.278l-5.31 12.786c-5.108-2.14-7.79-2.168-11.186-2.194-4.096-0.054-8.746-0.108-16.334-3.25-7.588-3.17-10.902-6.42-13.828-9.292-2.426-2.384-4.354-4.28-9.474-6.394-5.148-2.168-7.844-2.194-11.254-2.248-4.11-0.028-8.76-0.108-16.36-3.278-7.588-3.142-10.902-6.42-13.828-9.292-2.388-2.334-4.362-4.206-9.276-6.292l78.102 78.484-9.758 9.806-70.304-70.646c0.31 2.31 0.394 4.366 0.412 6.228 0.040 3.44 0.068 6.122 2.196 11.296 2.13 5.174 4.016 7.098 6.388 9.536 2.884 2.952 6.132 6.312 9.286 13.95 3.14 7.64 3.194 12.298 3.234 16.416 0.040 3.414 0.068 6.122 2.184 11.27 2.13 5.146 4.002 7.070 6.374 9.508 2.87 2.952 6.118 6.284 9.258 13.896l-12.75 5.31c-2.13-5.146-4.002-7.070-6.374-9.508-2.87-2.952-6.118-6.284-9.258-13.896-3.14-7.64-3.194-12.298-3.234-16.416-0.040-3.414-0.068-6.122-2.184-11.27-2.13-5.174-4.016-7.098-6.388-9.536-2.884-2.952-6.132-6.312-9.286-13.95-3.14-7.64-3.194-12.326-3.248-16.444-0.026-3.34-0.12-6.040-2.116-11v110.988h-13.8v-99.872c-1.406 1.852-2.786 3.32-4.084 4.654-2.386 2.438-4.258 4.388-6.388 9.536-2.13 5.174-2.17 7.882-2.21 11.324-0.040 4.118-0.094 8.804-3.248 16.444-3.14 7.612-6.388 10.944-9.258 13.896-2.372 2.438-4.246 4.362-6.374 9.508-2.116 5.146-2.142 7.856-2.184 11.27-0.040 4.118-0.094 8.776-3.234 16.388l-12.75-5.31c2.116-5.146 2.142-7.828 2.184-11.242 0.040-4.118 0.094-8.776 3.234-16.416 3.14-7.612 6.388-10.944 9.258-13.896 2.372-2.438 4.246-4.362 6.374-9.508 2.13-5.174 2.17-7.882 2.21-11.324 0.040-4.118 0.094-8.804 3.248-16.444 3.14-7.64 6.388-10.972 9.258-13.924 2.338-2.39 4.188-4.384 6.266-9.306l-78.112 78.492-9.758-9.806 77.99-78.37c-4.278 1.954-6.342 3.746-8.584 5.934-2.952 2.898-6.28 6.176-13.908 9.346-7.602 3.142-12.25 3.224-16.362 3.278-3.424 0.028-6.118 0.082-11.308 2.248-5.188 2.14-7.13 4.036-9.596 6.448-2.952 2.872-6.294 6.15-13.936 9.346-7.628 3.17-12.292 3.224-16.416 3.278-3.436 0.054-6.146 0.108-11.334 2.276l-5.284-12.84c7.628-3.17 12.292-3.224 16.416-3.278 3.436-0.054 6.146-0.108 11.334-2.276 5.202-2.14 7.142-4.036 9.61-6.448 2.952-2.898 6.294-6.15 13.922-9.318 7.628-3.196 12.292-3.25 16.402-3.304 3.424-0.054 6.118-0.082 11.28-2.248 5.162-2.14 7.088-4.036 9.528-6.42 1.252-1.236 2.652-2.542 4.35-3.874h-99.646v-13.87h110.228c-4.354-1.666-7.080-1.874-10.2-1.924-4.11-0.028-8.76-0.108-16.374-3.25-7.614-3.17-10.956-6.448-13.908-9.318-2.452-2.41-4.38-4.308-9.542-6.448-5.188-2.168-7.898-2.222-11.334-2.276-4.124-0.054-8.788-0.108-16.416-3.278-7.642-3.196-10.984-6.448-13.936-9.346-2.466-2.41-4.408-4.308-9.596-6.448l5.284-12.84c7.628 3.196 10.97 6.448 13.922 9.346 2.466 2.41 4.406 4.308 9.61 6.448 5.188 2.168 7.898 2.222 11.334 2.276 4.124 0.054 8.788 0.108 16.428 3.304 7.602 3.17 10.93 6.42 13.882 9.318 2.44 2.384 4.38 4.28 9.556 6.42 5.148 2.168 7.858 2.194 11.266 2.248 1.746 0.012 3.712 0.126 5.84 0.388l-70.504-70.846 9.758-9.806 77.952 78.33c-1.918-4.278-3.692-6.346-5.876-8.602-2.87-2.952-6.118-6.312-9.272-13.95-3.154-7.64-3.222-12.352-3.262-16.47-0.054-3.44-0.080-6.15-2.224-11.35-2.142-5.228-4.044-7.178-6.428-9.644-2.884-2.952-6.132-6.338-9.3-14.006s-3.222-12.352-3.274-16.498c-0.054-3.44-0.094-6.176-2.238-11.378l12.75-5.31c3.168 7.666 3.222 12.352 3.274 16.498 0.054 3.44 0.094 6.176 2.238 11.378 2.142 5.228 4.044 7.178 6.428 9.644 2.884 2.952 6.132 6.338 9.3 14.006 3.154 7.64 3.222 12.352 3.262 16.47 0.054 3.44 0.080 6.15 2.224 11.35 2.13 5.202 4.016 7.124 6.402 9.59 1.226 1.262 2.528 2.672 3.854 4.382v-100.168h13.8v110.768c1.644-4.37 1.852-7.1 1.9-10.246 0.040-4.118 0.108-8.804 3.262-16.444 3.14-7.666 6.402-11.026 9.272-13.978 2.386-2.466 4.272-4.416 6.416-9.616 2.142-5.202 2.184-7.938 2.238-11.378 0.054-4.144 0.108-8.83 3.274-16.498 3.168-7.666 6.414-11.052 9.3-14.006 2.386-2.466 4.286-4.416 6.428-9.644l12.75 5.31c-3.168 7.666-6.416 11.052-9.3 14.006-2.386 2.466-4.286 4.416-6.428 9.644-2.142 5.202-2.184 7.938-2.238 11.378-0.054 4.144-0.108 8.832-3.274 16.498-3.154 7.666-6.402 11.026-9.272 13.978-2.386 2.466-4.272 4.416-6.416 9.616-2.142 5.174-2.17 7.882-2.224 11.324-0.016 1.752-0.132 3.732-0.394 5.872l70.516-70.858 9.758 9.806-70.292 70.634c2.282-0.306 4.326-0.396 6.17-0.42 3.41-0.028 6.092-0.054 11.24-2.194 5.148-2.168 7.076-4.036 9.514-6.448 2.938-2.872 6.266-6.15 13.868-9.318 7.588-3.142 12.238-3.196 16.334-3.224 3.396-0.054 6.078-0.082 11.2-2.222 5.122-2.112 7.036-4.010 9.46-6.394 2.938-2.872 6.254-6.15 13.84-9.318l5.282 12.84c-5.122 2.112-7.034 4.010-9.46 6.394-2.938 2.872-6.254 6.15-13.84 9.318-7.588 3.142-12.238 3.196-16.334 3.224-3.396 0.054-6.078 0.082-11.2 2.222-5.148 2.14-7.076 4.010-9.514 6.42-2.938 2.872-6.266 6.15-13.868 9.292-7.602 3.196-12.25 3.25-16.362 3.278-3.348 0.054-6.054 0.118-11.020 2.14h110.52v13.87h0.002z" />
<glyph unicode="&#xe9a0;" d="M581.002 449c0-38.3-30.893-69.348-69.002-69.348s-69.002 31.048-69.002 69.348c0 38.3 30.893 69.348 69.002 69.348s69.002-31.048 69.002-69.348z" />
<glyph unicode="&#xe9a1;" d="M0 277.34h1024v-341.34h-1024v341.34z" />
<glyph unicode="&#xe9a2;" d="M0 960h1024v-341.34h-1024v341.34z" />
<glyph unicode="&#xe9a3;" d="M0 618.66h1024v-341.32h-1024v341.32z" />
<glyph unicode="&#xe9a4;" d="M0 960h1024v-1024h-1024v1024z" />
<glyph unicode="&#xe9a5;" d="M0 259.36h1024v-53.894h-1024v53.894z" />
<glyph unicode="&#xe9a6;" d="M0 151.58h1024v-53.894h-1024v53.894z" />
<glyph unicode="&#xe9a7;" d="M199.13 692.388l-100.274 34.24 100.274 34.24 34.24 100.262 34.24-100.262 100.274-34.24-100.274-34.24-34.24-100.262z" />
<glyph unicode="&#xe9a8;" d="M233.37 843.112l29.652-86.83 86.832-29.652-86.832-29.652-29.652-86.83-29.652 86.83-86.832 29.652 86.832 29.652 29.652 86.83zM233.37 879.158l-38.828-113.702-113.7-38.826 113.7-38.826 38.828-113.702 38.828 113.702 113.7 38.826-113.7 38.826-38.828 113.702z" />
<glyph unicode="&#xe9a9;" d="M0 960h1024v-1024h-1024v1024z" />
<glyph unicode="&#xe9aa;" d="M188.632 960h-188.632v-39.954l188.632-123.586z" />
<glyph unicode="&#xe9ab;" d="M0 823.402v-52.034h79.42z" />
<glyph unicode="&#xe9ac;" d="M0 636.632v-52.034l79.42 52.034z" />
<glyph unicode="&#xe9ad;" d="M512 920.046v39.954h-188.632v-163.54z" />
<glyph unicode="&#xe9ae;" d="M512 584.598v52.034h-79.42z" />
<glyph unicode="&#xe9af;" d="M323.368 611.54v-163.54h188.632v39.954z" />
<glyph unicode="&#xe9b0;" d="M512 771.368v52.034l-79.42-52.034z" />
<glyph unicode="&#xe9b1;" d="M0 487.954v-39.954h188.632v163.54z" />
<glyph unicode="&#xe9b2;" d="M512 487.954v39.928l-167.536 108.75h49.496l118.040-76.622v24.588l-79.42 52.034h79.42v26.948h-215.578v-215.58h26.946v163.54z" />
<glyph unicode="&#xe9b3;" d="M0 663.58v-26.948h79.42l-79.42-52.034v-37.802l138.394 89.836h49.496l-187.89-121.964v-26.714l188.632 123.586v-163.54h26.946v215.58z" />
<glyph unicode="&#xe9b4;" d="M215.578 960h-26.946v-163.54l-188.632 123.586v-43.724l161.684-104.954h-49.496l-112.188 72.824v-20.79l79.42-52.034h-79.42v-26.948h215.578z" />
<glyph unicode="&#xe9b5;" d="M512 744.42v26.948h-79.42l79.42 52.034v38.284l-139.136-90.318h-49.496l188.632 122.446v26.232l-188.632-123.586v163.54h-26.946v-215.58z" />
<glyph unicode="&#xe9b6;" d="M512 663.58v80.84h-215.578v215.58h-80.844v-215.58h-215.578v-80.84h215.578v-215.58h80.844v215.58z" />
<glyph unicode="&#xe9b7;" d="M138.394 636.632l-138.394-89.836v-32.128l187.89 121.964z" />
<glyph unicode="&#xe9b8;" d="M344.464 636.632l167.536-108.75v32.128l-118.040 76.622z" />
<glyph unicode="&#xe9b9;" d="M161.684 771.368l-161.684 104.954v-32.13l112.188-72.824z" />
<glyph unicode="&#xe9ba;" d="M372.864 771.368l139.136 90.318v32.128l-188.632-122.446z" />
<glyph unicode="&#xe9bb;" d="M260.83 285.11l16.964-56 54.358 21.654c4.638 1.848 8.854-3.442 6.022-7.552l-33.206-48.178 50.822-29c4.336-2.474 2.83-9.068-2.15-9.416l-58.37-4.076 9.014-57.814c0.77-4.932-5.326-7.868-8.702-4.19l-39.582 43.094-39.58-43.094c-3.376-3.676-9.472-0.742-8.702 4.19l9.014 57.814-58.372 4.078c-4.98 0.348-6.484 6.942-2.15 9.416l50.822 29-33.206 48.178c-2.832 4.11 1.384 9.398 6.022 7.552l54.358-21.654 16.964 56c1.448 4.776 8.212 4.776 9.66-0.002z" />
<glyph unicode="&#xe9bc;" d="M770.87 786.25l8.286-27.356 26.554 10.578c2.266 0.902 4.326-1.68 2.942-3.688l-16.22-23.534 24.826-14.166c2.118-1.208 1.382-4.43-1.050-4.6l-28.514-1.992 4.404-28.242c0.376-2.41-2.602-3.842-4.25-2.048l-19.334 21.050-19.334-21.050c-1.65-1.796-4.626-0.362-4.25 2.048l4.404 28.242-28.514 1.992c-2.432 0.17-3.168 3.392-1.050 4.6l24.826 14.166-16.22 23.534c-1.384 2.008 0.676 4.592 2.942 3.688l26.554-10.578 8.286 27.356c0.7 2.334 4.004 2.334 4.712 0z" />
<glyph unicode="&#xe9bd;" d="M586.1 535.534l8.286-27.356 26.554 10.578c2.266 0.902 4.326-1.68 2.942-3.688l-16.22-23.534 24.826-14.166c2.118-1.208 1.382-4.43-1.050-4.6l-28.514-1.992 4.404-28.242c0.376-2.41-2.602-3.844-4.25-2.048l-19.334 21.050-19.334-21.050c-1.65-1.796-4.626-0.362-4.25 2.048l4.404 28.242-28.514 1.992c-2.432 0.17-3.168 3.392-1.050 4.6l24.826 14.166-16.22 23.534c-1.384 2.008 0.676 4.592 2.942 3.688l26.554-10.578 8.286 27.356c0.7 2.332 4.004 2.332 4.712 0z" />
<glyph unicode="&#xe9be;" d="M945.674 666.174l8.286-27.356 26.554 10.578c2.266 0.902 4.326-1.68 2.942-3.688l-16.22-23.534 24.826-14.166c2.118-1.208 1.382-4.43-1.050-4.6l-28.514-1.992 4.404-28.242c0.376-2.41-2.602-3.842-4.25-2.048l-19.334 21.050-19.334-21.050c-1.65-1.796-4.626-0.362-4.25 2.048l4.404 28.242-28.514 1.992c-2.432 0.17-3.168 3.392-1.050 4.6l24.826 14.166-16.22 23.534c-1.384 2.008 0.676 4.592 2.942 3.688l26.554-10.578 8.286 27.356c0.7 2.334 4.004 2.334 4.712 0z" />
<glyph unicode="&#xe9bf;" d="M770.87 223.852l8.286-27.356 26.554 10.578c2.266 0.902 4.326-1.68 2.942-3.688l-16.22-23.534 24.826-14.166c2.118-1.208 1.382-4.43-1.050-4.6l-28.514-1.992 4.404-28.242c0.376-2.41-2.602-3.844-4.25-2.048l-19.334 21.050-19.334-21.050c-1.65-1.796-4.626-0.362-4.25 2.048l4.404 28.242-28.514 1.992c-2.432 0.17-3.168 3.392-1.050 4.6l24.826 14.166-16.22 23.534c-1.384 2.008 0.676 4.592 2.942 3.688l26.554-10.578 8.286 27.356c0.7 2.334 4.004 2.334 4.712 0z" />
<glyph unicode="&#xe9c0;" d="M834.978 466.064l-6.652-19.948-21.026-0.162c-2.722-0.022-3.852-3.496-1.662-5.112l16.916-12.492-6.342-20.048c-0.822-2.596 2.134-4.742 4.348-3.16l17.106 12.228 17.106-12.228c2.214-1.584 5.17 0.564 4.348 3.16l-6.342 20.048 16.916 12.492c2.19 1.618 1.062 5.092-1.662 5.112l-21.026 0.162-6.652 19.948c-0.862 2.582-4.516 2.582-5.376 0z" />
<glyph unicode="&#xe9c1;" d="M0 960h1024v-341.34h-1024v341.34z" />
<glyph unicode="&#xe9c2;" d="M0 277.34h1024v-341.34h-1024v341.34z" />
<glyph unicode="&#xe9c3;" d="M0 618.66h1024v-341.32h-1024v341.32z" />
<glyph unicode="&#xe9c4;" d="M0 277.34h1024v-341.34h-1024v341.34z" />
<glyph unicode="&#xe9c5;" d="M0 960h1024v-341.34h-1024v341.34z" />
<glyph unicode="&#xe9c6;" d="M0 618.66h1024v-341.34h-1024v341.34z" />
<glyph unicode="&#xe9c7;" d="M548.86 336.252c-60.474 0-109.53 49.056-109.53 109.586 0 60.418 49.056 109.584 109.53 109.584 22.5 0 43.25-6.92 60.54-18.632 2.648-1.794 5.67 1.686 3.452 3.992-25.842 26.868-62.418 43.26-102.972 41.876-69.672-2.378-127.35-58.238-131.802-127.808-5.1-79.688 57.998-145.912 136.558-145.912 38.698 0 73.476 16.178 98.312 42.044 2.194 2.286-0.834 5.712-3.458 3.934-17.306-11.736-38.090-18.664-60.63-18.664z" />
<glyph unicode="&#xe9c8;" d="M644.75 513.292l11.364-31.954 30.63 14.56c2.308 1.096 4.714-1.31 3.618-3.618l-14.56-30.63 31.954-11.364c2.406-0.856 2.406-4.26 0-5.116l-31.954-11.364 14.56-30.63c1.096-2.308-1.31-4.714-3.618-3.618l-30.63 14.56-11.364-31.954c-0.856-2.406-4.26-2.406-5.116 0l-11.364 31.954-30.63-14.56c-2.308-1.096-4.714 1.31-3.618 3.618l14.56 30.63-31.954 11.364c-2.406 0.856-2.406 4.26 0 5.116l31.954 11.364-14.56 30.63c-1.096 2.308 1.31 4.714 3.618 3.618l30.63-14.56 11.364 31.954c0.856 2.408 4.26 2.408 5.116 0z" />
<glyph unicode="&#xe9c9;" d="M0 960h406.060v-1024h-406.060v1024z" />
<glyph unicode="&#xe9ca;" d="M406.060 960h617.94v-1024h-617.94v1024z" />
<glyph unicode="&#xe9cb;" d="M556.44 281.26c-9.406 0-18.532-3.202-25.876-9.076l-44.554-35.642c-7.344-5.876-16.472-9.078-25.878-9.078h-12.368v7.114c0 10.926 8.858 19.784 19.784 19.784h20.564v9.588c0 9.56-7.75 17.312-17.312 17.312h-9.588c0 7.428-6.022 13.45-13.45 13.45v0c-37.14 0-67.246-30.108-67.246-67.246h-25.818c-9.406 0-18.53 3.2-25.874 9.076l-44.556 35.644c-7.344 5.876-16.47 9.076-25.874 9.076h-196.194c-6.61 0-9.92-7.992-5.246-12.666l67.908-67.908c8.69-8.69 20.474-13.57 32.762-13.57h48.054l39.452-29.588c9.312-6.984 20.638-10.76 32.278-10.76h49.314c8.466 0 16.438 3.986 21.518 10.76l5.38 7.174v-31.382l-33.19-66.38c-3.288-6.578 1.494-14.316 8.848-14.316h108.594c5.464 0 9.892 4.428 9.892 9.892v120.118l18.83-25.106c5.080-6.774 13.052-10.76 21.518-10.76h49.314c11.64 0 22.966 3.776 32.278 10.76l39.452 29.588h48.056c12.288 0 24.072 4.882 32.762 13.57l67.91 67.91c4.674 4.674 1.364 12.666-5.246 12.666l-196.198-0.004z" />
<glyph unicode="&#xe9cc;" d="M410.016 499.176l6.43-19.28 20.324-0.158c2.632-0.020 3.722-3.378 1.606-4.942l-16.35-12.074 6.13-19.378c0.794-2.508-2.062-4.584-4.204-3.054l-16.534 11.818-16.534-11.818c-2.14-1.53-4.998 0.546-4.204 3.054l6.13 19.378-16.35 12.074c-2.116 1.564-1.026 4.922 1.606 4.942l20.324 0.158 6.43 19.28c0.832 2.496 4.364 2.496 5.196 0z" />
<glyph unicode="&#xe9cd;" d="M111.478 377.67l18.18-9.086 14.482 14.26c1.876 1.846 5.020 0.244 4.63-2.358l-3.024-20.098 18.036-9.368c2.336-1.212 1.782-4.7-0.812-5.132l-20.048-3.334-3.334-20.048c-0.432-2.596-3.92-3.148-5.132-0.812l-9.368 18.036-20.098-3.024c-2.602-0.392-4.204 2.754-2.358 4.63l14.26 14.482-9.086 18.18c-1.178 2.352 1.32 4.848 3.672 3.672z" />
<glyph unicode="&#xe9ce;" d="M707.032 373.996l-9.086-18.18 14.26-14.482c1.846-1.876 0.244-5.020-2.358-4.63l-20.098 3.024-9.368-18.036c-1.212-2.336-4.7-1.782-5.132 0.812l-3.334 20.048-20.048 3.334c-2.596 0.432-3.148 3.92-0.812 5.132l18.036 9.368-3.024 20.098c-0.392 2.602 2.754 4.204 4.63 2.358l14.482-14.26 18.18 9.086c2.352 1.178 4.848-1.318 3.672-3.672z" />
<glyph unicode="&#xe9cf;" d="M248.662 468.114l13.318-15.352 18.836 7.632c2.438 0.988 4.732-1.696 3.374-3.95l-10.484-17.412 13.080-15.556c1.694-2.014-0.152-5.024-2.714-4.43l-19.798 4.592-10.754-17.246c-1.392-2.232-4.826-1.408-5.052 1.212l-1.752 20.248-19.726 4.898c-2.554 0.634-2.83 4.154-0.408 5.18l18.716 7.924-1.438 20.274c-0.184 2.624 3.078 3.974 4.802 1.986z" />
<glyph unicode="&#xe9d0;" d="M570.974 466.126l-1.438-20.274 18.716-7.924c2.424-1.026 2.146-4.546-0.408-5.18l-19.726-4.898-1.752-20.248c-0.226-2.622-3.66-3.446-5.052-1.212l-10.754 17.246-19.798-4.592c-2.564-0.594-4.408 2.416-2.714 4.43l13.080 15.556-10.484 17.412c-1.358 2.254 0.936 4.938 3.374 3.95l18.836-7.632 13.318 15.352c1.726 1.99 4.988 0.64 4.802-1.986z" />
<glyph unicode="&#xe9d1;" d="M327.81 491.592l10.068-17.656 19.964 3.81c2.584 0.494 4.31-2.588 2.538-4.534l-13.68-15.032 9.794-17.81c1.268-2.306-1.128-4.898-3.526-3.816l-18.522 8.366-13.912-14.818c-1.802-1.918-5.008-0.44-4.718 2.176l2.232 20.202-18.39 8.652c-2.382 1.12-1.966 4.626 0.61 5.16l19.902 4.12 2.546 20.164c0.328 2.612 3.79 3.302 5.094 1.016z" />
<glyph unicode="&#xe9d2;" d="M643.54 426.762l-5.364-19.604 16.81-11.422c2.176-1.478 1.218-4.878-1.41-5l-20.302-0.956-5.668-19.518c-0.734-2.526-4.262-2.666-5.192-0.204l-7.182 19.012-20.314-0.64c-2.63-0.082-3.852 3.23-1.798 4.874l15.862 12.706-6.886 19.122c-0.892 2.476 1.882 4.662 4.080 3.216l16.986-11.16 16.058 12.458c2.078 1.616 5.014-0.346 4.32-2.884z" />
<glyph unicode="&#xe9d3;" d="M175.616 429.648l16.058-12.458 16.986 11.16c2.2 1.444 4.972-0.742 4.080-3.216l-6.886-19.122 15.862-12.706c2.054-1.646 0.832-4.958-1.798-4.874l-20.314 0.64-7.182-19.012c-0.93-2.462-4.458-2.322-5.192 0.204l-5.668 19.518-20.302 0.956c-2.628 0.124-3.586 3.522-1.41 5l16.81 11.422-5.364 19.604c-0.694 2.536 2.242 4.498 4.32 2.884z" />
<glyph unicode="&#xe9d4;" d="M492.122 490.578l2.546-20.164 19.902-4.12c2.576-0.534 2.992-4.040 0.61-5.16l-18.39-8.652 2.232-20.202c0.29-2.616-2.918-4.094-4.718-2.176l-13.912 14.818-18.522-8.366c-2.398-1.084-4.794 1.51-3.526 3.816l9.794 17.81-13.68 15.032c-1.772 1.946-0.046 5.026 2.538 4.534l19.964-3.81 10.068 17.656c1.302 2.284 4.766 1.594 5.094-1.016z" />
<glyph unicode="&#xe9d5;" d="M232.682 816.788v-70.426c0-29.124-23.694-52.818-52.818-52.818s-52.818 23.694-52.818 52.818v70.426h105.636zM250.29 852h-140.85c-9.724 0-17.606-7.882-17.606-17.606v-88.032c0-48.618 39.414-88.032 88.032-88.032s88.032 39.414 88.032 88.032v88.032c-0.002 9.724-7.886 17.606-17.608 17.606v0z" />
<glyph unicode="&#xe9d6;" d="M232.682 816.788v-70.426c0-29.124-23.694-52.818-52.818-52.818s-52.818 23.694-52.818 52.818v70.426h105.636z" />
<glyph unicode="&#xe9d7;" d="M116.342 840c5.77-8.916-3.732-18.418-12.648-12.648-0.568 0.368-1.066 0.866-1.436 1.436-5.77 8.916 3.732 18.418 12.648 12.648 0.57-0.37 1.068-0.866 1.436-1.436z" />
<glyph unicode="&#xe9d8;" d="M257.192 840c5.77-8.916-3.732-18.418-12.648-12.648-0.568 0.368-1.066 0.866-1.436 1.436-5.77 8.916 3.732 18.418 12.648 12.648 0.57-0.37 1.068-0.866 1.436-1.436z" />
<glyph unicode="&#xe9d9;" d="M116.342 769.576c5.77-8.916-3.732-18.418-12.648-12.648-0.568 0.368-1.066 0.866-1.436 1.436-5.77 8.916 3.732 18.418 12.648 12.648 0.57-0.37 1.068-0.868 1.436-1.436z" />
<glyph unicode="&#xe9da;" d="M257.192 769.576c5.77-8.916-3.732-18.418-12.648-12.648-0.568 0.368-1.066 0.866-1.436 1.436-5.77 8.916 3.732 18.418 12.648 12.648 0.57-0.37 1.068-0.868 1.436-1.436z" />
<glyph unicode="&#xe9db;" d="M186.768 840c5.77-8.916-3.732-18.418-12.648-12.648-0.568 0.368-1.066 0.866-1.436 1.436-5.77 8.916 3.732 18.418 12.648 12.648 0.57-0.37 1.068-0.866 1.436-1.436z" />
<glyph unicode="&#xe9dc;" d="M239.622 704.652c5.77-8.916-3.732-18.418-12.648-12.648-0.568 0.368-1.066 0.866-1.436 1.434-5.77 8.916 3.732 18.418 12.648 12.648 0.57-0.368 1.068-0.864 1.436-1.434z" />
<glyph unicode="&#xe9dd;" d="M134.95 704.652c5.77-8.916-3.732-18.418-12.648-12.648-0.568 0.368-1.066 0.866-1.436 1.434-5.77 8.916 3.732 18.418 12.648 12.648 0.57-0.368 1.068-0.864 1.436-1.434z" />
<glyph unicode="&#xe9de;" d="M191.234 768.432v-15.16c0-6.27-5.1-11.37-11.37-11.37s-11.37 5.1-11.37 11.37v15.16h22.74z" />
<glyph unicode="&#xe9df;" d="M191.234 804.378v-15.16c0-6.27-5.1-11.37-11.37-11.37s-11.37 5.1-11.37 11.37v15.16h22.74z" />
<glyph unicode="&#xe9e0;" d="M191.234 732.118v-15.16c0-6.27-5.1-11.37-11.37-11.37s-11.37 5.1-11.37 11.37v15.16h22.74z" />
<glyph unicode="&#xe9e1;" d="M221.862 768.432v-15.16c0-6.27-5.1-11.37-11.37-11.37s-11.37 5.1-11.37 11.37v15.16h22.74z" />
<glyph unicode="&#xe9e2;" d="M160.608 768.432v-15.16c0-6.27-5.1-11.37-11.37-11.37s-11.37 5.1-11.37 11.37v15.16h22.74z" />
<glyph unicode="&#xe9e3;" d="M0 960h1024v-341.34h-1024v341.34z" />
<glyph unicode="&#xe9e4;" d="M0 277.34h1024v-341.34h-1024v341.34z" />
<glyph unicode="&#xe9e5;" d="M0 618.66h1024v-341.34h-1024v341.34z" />
<glyph unicode="&#xe9e6;" d="M0-64l488.65 498.034c6.986 7.14 6.986 20.794 0 27.932l-488.65 498.034v-1024z" />
<glyph unicode="&#xe9e7;" d="M0 960h418.74v-1024h-418.74v1024z" />
<glyph unicode="&#xe9e8;" d="M203.158 960l215.578-64-215.578-64 215.578-64-215.578-64 215.578-64-215.578-64 215.578-64-215.578-64 215.578-64-215.578-64 215.578-64-215.578-64 215.578-64-215.578-64 215.578-64-215.578-64h820.842v1024z" />
<glyph unicode="&#xe9e9;" d="M0 959.998h1024v-113.778h-1024v113.778z" />
<glyph unicode="&#xe9ea;" d="M0 846.218h1024v-113.778h-1024v113.778z" />
<glyph unicode="&#xe9eb;" d="M0 732.438h1024v-113.778h-1024v113.778z" />
<glyph unicode="&#xe9ec;" d="M0 618.658h1024v-113.778h-1024v113.778z" />
<glyph unicode="&#xe9ed;" d="M0 504.878h1024v-113.778h-1024v113.778z" />
<glyph unicode="&#xe9ee;" d="M0 49.78h1024v-113.778h-1024v113.778z" />
<glyph unicode="&#xe9ef;" d="M0 391.12h1024v-113.778h-1024v113.778z" />
<glyph unicode="&#xe9f0;" d="M0 277.338h1024v-113.778h-1024v113.778z" />
<glyph unicode="&#xe9f1;" d="M0 163.558h1024v-113.778h-1024v113.778z" />
<glyph unicode="&#xe9f2;" d="M686.732 448h-686.732v512h707.474v-491.26c0-11.454-9.286-20.74-20.742-20.74z" />
<glyph unicode="&#xe9f3;" d="M633.978 728.44h-53.944v61.65h7.706v15.412h-77.064v-15.412h7.706v-61.65h-30.826v61.65h7.706v15.412h-77.062v-15.412h7.706v-61.65h-46.238v77.062h7.706v15.414h-77.064v-15.412h7.706v-77.064h-46.238v61.65h7.706v15.412h-77.062v-15.412h7.706v-61.65h-30.826v61.65h7.706v15.412h-77.064v-15.412h7.706v-61.65h-61.65v-15.412h7.706v-138.714h107.888v46.238c0 8.512 6.9 15.412 15.412 15.412s15.412-6.902 15.412-15.412v-46.238h77.062v46.238c0 8.512 6.9 15.412 15.412 15.412s15.412-6.902 15.412-15.412v-46.238h15.412v53.946c0 12.768 10.35 23.12 23.12 23.12s23.12-10.352 23.12-23.12v-53.944h15.412v46.238c0 8.512 6.9 15.412 15.412 15.412s15.412-6.902 15.412-15.412v-46.238h77.062v46.238c0 8.512 6.9 15.412 15.412 15.412s15.412-6.902 15.412-15.412v-46.238h107.888v138.714h7.706v15.412l-7.694-0.002zM163.89 666.79h-30.826v46.238c0 8.512 6.9 15.412 15.412 15.412s15.412-6.902 15.412-15.412l0.002-46.238zM256.366 666.79h-30.826v46.238c0 8.512 6.9 15.412 15.412 15.412s15.412-6.902 15.412-15.412v-46.238h0.002zM364.254 713.026h-30.826v30.826c0 8.512 6.9 15.412 15.412 15.412s15.412-6.902 15.412-15.412v-30.826h0.002zM472.144 666.79h-30.826v46.238c0 8.512 6.9 15.412 15.412 15.412s15.412-6.902 15.412-15.412v-46.238h0.002zM564.62 666.79h-30.826v46.238c0 8.512 6.9 15.412 15.412 15.412s15.412-6.902 15.412-15.412v-46.238h0.002z" />
<glyph unicode="&#xe9f4;" d="M0 960h1024v-1024h-1024v1024z" />
<glyph unicode="&#xe9f5;" d="M649.922 547.464c85.802-201.54-106.466-393.808-308.008-308.006-49.012 20.866-88.214 60.068-109.080 109.080-85.802 201.54 106.466 393.808 308.008 308.006 49.012-20.866 88.216-60.068 109.080-109.080z" />
<glyph unicode="&#xe9f6;" d="M0 960h341.34v-1024h-341.34v1024z" />
<glyph unicode="&#xe9f7;" d="M341.34 960h341.34v-1024h-341.34v1024z" />
<glyph unicode="&#xe9f8;" d="M682.66 960h341.34v-1024h-341.34v1024z" />
<glyph unicode="&#xe9f9;" d="M653.242 545.488c0 0-49.128 0-85.974-36.846h24.564c0 0-23.796-42.986-36.078-116.678l-25.332 4.134v112.908l24.564-8.042-42.986 105.932-42.986-105.932 24.564 8.188v-113.056l-25.332-4.134c-12.282 73.692-36.078 116.678-36.078 116.678h24.564c-36.846 36.846-85.974 36.846-85.974 36.846 61.41-73.692 61.41-196.51 61.41-196.51l61.41 10.234v-83.924h36.846v83.924l61.41-10.234c-0.002 0.002-0.002 122.82 61.408 196.512z" />
<glyph unicode="&#xe9fa;" d="M0 960h1024v-1024h-1024v1024z" />
<glyph unicode="&#xe9fb;" d="M1024 836.010l-512-335.248-512 335.748v-105.824l431.47-282.686-431.47-282.686v-105.804l512 335.726 512-336.226v106.304l-431.468 282.686 431.468 282.686z" />
<glyph unicode="&#xe9fc;" d="M1024 492.138h-467.862v467.862h-88.276v-467.862h-467.862v-88.276h467.862v-467.862h88.276v467.862h467.862z" />
<glyph unicode="&#xe9fd;" d="M0 205.48h1024v-269.48h-1024v269.48z" />
<glyph unicode="&#xe9fe;" d="M0 960h1024v-754.52h-1024v754.52z" />
<glyph unicode="&#xe9ff;" d="M0 960h215.58v-1024h-215.58v1024z" />
<glyph unicode="&#xea00;" d="M26.964-19.244h9.528v26.712h-9.528v-26.712zM103.028-19.244h9.534v26.712h-9.534v-26.712zM179.142-19.244h9.488v26.712h-9.488v-26.712zM65.044 52.37h9.434v22.258h-9.434v-22.258zM141.158 52.37h9.488v22.258h-9.488v-22.258zM26.964 110.438h9.528v26.712h-9.528v-26.712zM103.028 110.438h9.534v26.712h-9.534v-26.712zM179.142 110.438h9.488v26.712h-9.488v-26.712zM46.076 74.628h9.434v22.456h9.534v22.258h9.434v-22.258h9.584v-22.456h9.434v-22.258h-9.436v-22.452h-9.584v-22.452h-9.434v22.454h-9.534v22.452h-9.434v22.256h0.002zM122.146 74.628h9.528v22.456h9.484v22.258h9.488v-22.258h9.484v-22.456h9.53v-22.258h-9.53v-22.452h-9.484v-22.452h-9.488v22.454h-9.484v22.452h-9.528c0 0 0 22.256 0 22.256zM141.158 164.052v-22.258h-9.578v-22.452h-9.434v-22.258h-9.584v-22.456h-9.534v22.456h-9.534v22.258h-9.434v22.452h-9.584v22.258h-9.434v-22.258h-9.534v-22.452h-9.434v-22.258h-9.584v-22.456h-9.528v-22.258h9.528v-22.452h9.584v-22.452h9.434v-22.258h9.534v-22.262h9.534v22.262h9.484v22.258h9.434v22.454h9.534v22.452h9.534v-22.452h9.584v-22.452h9.528v-22.258h9.484v-22.262h9.488v22.262h9.484v22.258h9.53v22.452h9.532v22.452h9.44v22.258h-9.488v22.456h-9.484v22.258h-9.53v22.452h-9.484v22.258l-9.488-0.002zM164.724 186.31h4.742v8.904h4.792v-8.904h4.792v-8.9h-4.792v-9.098h-4.792v9.098h-4.742v8.9zM164.724 217.478v-13.166h-4.692v-13.546h-4.792v-17.808h4.79v-13.354h4.692v-13.354h14.324v13.354h4.742v13.354h4.692v17.808h-4.692v13.546h-4.742v13.166h-14.322zM36.492 186.508h4.792v8.9h4.792v-8.9h4.642v-9.098h-4.642v-8.904h-4.792v8.904h-4.792c0 0 0 9.098 0 9.098zM36.492 217.67v-13.358h-4.742v-13.354h-4.786v-18.002h4.786v-13.354h4.742v-13.354h14.226v13.354h4.792v13.354h4.648v18.002h-4.648v13.354h-4.792v13.358h-14.226zM88.802 186.508h4.692v8.9h4.842v-8.9h4.692v-9.098h-4.692v-8.904h-4.842v8.904h-4.692v9.098zM112.562 186.508h4.792v8.9h4.792v-8.9h4.692v-9.098h-4.692v-8.904h-4.792v8.904h-4.792v9.098zM112.562 217.67v-13.358h-9.534v13.358h-14.226v-13.358h-4.742v-13.354h-4.792v-18.002h4.792v-13.354h4.742v-13.354h14.226v13.354h9.534v-13.354h14.276v13.354h4.836v13.354h4.648v18.002h-4.648v13.354h-4.836v13.358h-14.276zM26.964 226.768h9.528v26.708h-9.528v-26.708zM103.028 226.768h9.534v26.708h-9.534v-26.708zM179.142 226.768h9.488v26.708h-9.488v-26.708zM26.964 338.45h9.528v17.804h-9.528v-17.804zM179.142 338.45h9.488v17.804h-9.488v-17.804zM103.028 400.966h9.534v22.258h-9.534v-22.258zM26.964 461.354v-26.902h9.528v26.902h-9.528zM79.27 461.354v-26.902h9.534v26.902h-9.534zM126.838 461.354v-26.902h9.484v26.902h-9.484zM179.142 461.354v-26.902h9.488v26.902h-9.488zM117.354 477.032v-8.904h-4.792v-6.774h-9.534v6.774h-4.692v8.904h-9.534v-13.354h4.692v-6.774h4.842v-17.808h-4.842v-6.774h-4.692v-13.354h9.534v8.9h4.692v6.586h9.534v-6.586h4.792v-8.9h9.484v13.354h-4.692v6.774h-4.792v17.808h4.792v6.774h4.692v13.354h-9.484zM103.028 472.582h9.534v22.258h-9.534v-22.258zM26.964 539.554h9.528v17.804h-9.528v-17.804zM179.142 539.554h9.488v17.804h-9.488v-17.804zM26.964 642.332h9.528v26.9h-9.528v-26.9zM103.028 642.332h9.534v26.9h-9.534v-26.9zM179.142 642.332h9.488v26.9h-9.488v-26.9zM65.044 447.614v9.29h9.434v15.484h9.584v18.002h14.276v21.094h4.692v10.262h9.532v-10.064h4.792v-21.292h14.32v-18.002h9.484v-15.484h9.488v-17.808h-9.488v-15.87h-9.484v-17.808h-14.32v-21.098h-4.792v-10.064h-9.532v10.064h-4.692v21.098h-14.278v17.808h-9.584v15.87h-9.434l0.002 8.518zM141.158 696.138v-22.452h-9.578v-22.258h-9.434v-22.456h-9.584v-22.258h-9.534v22.258h-9.534v22.456h-9.434v22.258h-9.584v22.452h-9.434v-22.452h-9.534v-22.258h-9.534v-22.456h-9.484v-22.258h-9.528v-22.452h9.528v-22.452h9.484v-22.258h9.534v-22.262h9.534v22.262h9.434v22.258h9.584v22.452h-9.584v26.906h9.584v-18.002h9.434v-35.81h4.842v-22.064l-14.276-0.194v-17.808h-9.584v-13.354h-9.434v-22.452h-9.534v22.452h-9.534v13.354h-9.484v13.358h-9.528v-40.26h9.528v-18.002h9.484v-15.484h9.534v-17.806h-9.534v-15.87h-9.484v-17.808h-9.528v-40.26h9.528v13.552h9.484v13.354h9.534v22.256h9.534v-22.258h9.434v-13.354h9.584v-18.002l14.276-0.194v-22.064h-4.842v-35.81h-9.434v-18.002h-9.584v27.1h9.584v22.258h-9.584v22.258h-9.434v22.456h-9.534v-22.456h-9.534v-22.258h-9.484v-22.258h-9.528v-22.452h9.528v-22.258h9.584v-22.456h9.434v-22.452h9.534v-22.258h9.434v22.26h9.584v22.452h9.434v22.456h9.534v22.258h9.534v-22.258h9.584v-22.456h9.528v-22.452h9.484v-22.258h9.488v22.258h9.484v22.452h9.53v22.456h9.482v22.258h9.488v22.452h-9.488v22.258h-9.482v22.258h-9.53v22.456h-9.484v-22.456h-9.488v-22.258h-9.578v-22.258h9.578v-27.1h-9.578v18.002h-9.434v35.81h-4.792v22.258h14.32v18.002h9.484v13.354h9.488v22.256h9.484v-22.258h9.53v-13.354h9.532v-13.552h9.44v40.26h-9.44v17.808h-9.532v15.87h-9.53v17.81h9.53v15.484h9.532v18.002h9.44v40.26h-9.44v-13.358h-9.532v-13.354h-9.53v-22.452h-9.484v22.452h-9.488v13.354h-9.484v17.808h-14.32v22.258h4.792v35.81h9.434v18.002h9.578v-26.906h-9.578v-22.452h9.578v-22.258h9.488v-22.262h9.484v22.262h9.53v22.258h9.482v22.452h9.488v22.452h-9.488v22.258h-9.482v22.456h-9.53v22.258h-9.484v22.452l-9.488-0.002zM36.492 718.396h4.698v8.904h4.886v-8.904h4.642v-8.904h-4.642v-9.098h-4.886v9.098h-4.698c0 0 0 8.904 0 8.904zM36.492 736.398h-4.742v-13.548h-4.786v-17.808h4.786v-13.548h4.742v-13.358h14.226v13.358h4.792v13.548h4.648v17.808h-4.648v13.548h-4.792v13.16h-14.226c0 0 0-13.16 0-13.16zM88.802 718.396h4.692v8.904h4.842v-8.904h4.692v-8.904h-4.692v-9.098h-4.842v9.098h-4.692v8.904zM112.562 718.396h4.792v8.904h4.792v-8.904h4.692v-8.904h-4.692v-9.098h-4.792v9.098h-4.792v8.904zM88.802 736.398h-4.742v-13.548h-4.792v-17.808h4.792v-13.548h4.742v-13.358h14.226v13.358h9.534v-13.358h14.276v13.358h4.836v13.548h4.648v17.808h-4.648v13.548h-4.836v13.16h-14.276v-13.16h-9.534v13.16h-14.226v-13.16zM164.724 718.59h4.742v8.71h4.792v-8.71h4.792v-9.098h-4.792v-8.9h-4.792v8.9h-4.742v9.098zM164.724 749.752v-13.354h-4.692v-13.548h-4.792v-17.808h4.79v-13.354h4.692v-13.358h14.324v13.358h4.742v13.354h4.692v17.808h-4.692v13.548h-4.742v13.354h-14.322zM26.964 758.656h9.528v26.712h-9.528v-26.712zM103.028 758.656h9.534v26.712h-9.534v-26.712zM179.142 758.656h9.488v26.712h-9.488v-26.712zM65.044 821.174h9.434v22.456h-9.434v-22.456zM141.158 821.174h9.488v22.456h-9.488v-22.456zM26.964 888.338h9.528v26.714h-9.528v-26.714zM103.028 888.338h9.534v26.714h-9.534v-26.714zM179.142 888.338h9.488v26.714h-9.488v-26.714zM46.076 843.63h9.434v22.258h9.534v22.45h9.434v-22.452h9.584v-22.258h9.434v-22.456h-9.436v-22.258h-9.584v-22.452h-9.434v22.454h-9.534v22.258h-9.434v22.456h0.002zM122.146 843.63h9.528v22.258h9.484v22.45h9.488v-22.452h9.484v-22.258h9.53v-22.456h-9.53v-22.258h-9.484v-22.452h-9.488v22.454h-9.484v22.258h-9.528c0 0 0 22.456 0 22.456zM141.158 933.052v-22.456h-9.484v-22.258h-9.528v-22.452h-9.584v-22.258h-9.534v22.26h-9.534v22.45h-9.434v22.258h-9.484v22.456h-9.534v-22.456h-9.534v-22.258h-9.434v-22.452h-9.584v-22.258h-9.528v-22.456h9.528v-22.258h9.584v-22.452h9.434v-22.452h9.534v-22.258h9.434v22.258h9.584v22.454h9.434v22.452h9.534v22.258h9.534v-22.258h9.584v-22.452h9.434v-22.452h9.578v-22.258h9.488v22.258h9.484v22.452h9.53v22.452h9.482v22.258h9.488v22.456h-9.44v22.258h-9.53v22.45h-9.53v22.258h-9.484v22.456h-9.488z" />
<glyph unicode="&#xea01;" d="M0 960h341.34v-1024h-341.34v1024z" />
<glyph unicode="&#xea02;" d="M341.34 960h341.34v-1024h-341.34v1024z" />
<glyph unicode="&#xea03;" d="M682.66 960h341.34v-1024h-341.34v1024z" />
<glyph unicode="&#xea04;" d="M0.006 960h1023.99v-107.789h-1023.99v107.789z" />
<glyph unicode="&#xea05;" d="M0.006 43.789h1023.99v-107.789h-1023.99v107.789z" />
<glyph unicode="&#xea06;" d="M0.006 852.211h1023.99v-808.412h-1023.99v808.412z" />
<glyph unicode="&#xea07;" d="M795.492 665.957c221.596-351.573-149.873-723.041-501.445-501.445-26.456 16.676-48.866 39.084-65.539 65.539-221.594 351.575 149.871 723.041 501.443 501.447 26.458-16.676 48.868-39.084 65.541-65.541z" />
<glyph unicode="&#xea08;" d="M444.782 263.799l-54.041-9.008c-6.812-1.136-13.014 4.118-13.014 11.024v20.336h67.055v-22.352z" />
<glyph unicode="&#xea09;" d="M578.892 263.799l54.041-9.008c6.812-1.136 13.014 4.118 13.014 11.024v20.336h-67.055v-22.352z" />
<glyph unicode="&#xea0a;" d="M500.661 627.351h-4.672c-5.61 0-10.652 3.122-13.162 8.13l-8.268 16.534 7.498 3.754 8.268-16.534c1.080-2.16 3.252-3.504 5.664-3.504h4.672v-8.38z" />
<glyph unicode="&#xea0b;" d="M414.094 644.615l13.855-27.71-7.5-3.75-13.855 27.71 7.5 3.75z" />
<glyph unicode="&#xea0c;" d="M527.203 498.491l-22.904 22.898c-4.976 4.976-7.83 11.864-7.83 18.904v7.706c0 2.826-0.672 5.664-1.938 8.196l-5.708 11.416c-1.19 2.38-3.586 3.864-6.248 3.864h-19.71c-5.86 0-11.126 3.252-13.746 8.492l-8.088 16.174 7.498 3.754 8.088-16.174c1.19-2.38 3.586-3.864 6.248-3.864h19.71c5.86 0 11.126-3.252 13.746-8.492l5.708-11.416c1.844-3.7 2.822-7.826 2.822-11.95v-7.706c0-4.834 1.96-9.56 5.376-12.966l8.594-8.6v39.050c0 10.586-3.646 20.966-10.26 29.238-7.798 9.758-12.092 21.992-12.092 34.478v32.404h8.382v-32.404c0-10.586 3.646-20.966 10.26-29.238 7.798-9.758 12.092-21.992 12.092-34.478v-59.285z" />
<glyph unicode="&#xea0d;" d="M507.265 520.166h-12.442c-7.672 0-14.62 4.834-17.294 12.016l-3.148 8.492 7.858 2.924 3.148-8.492c1.458-3.93 5.25-6.56 9.436-6.56h12.442v-8.38z" />
<glyph unicode="&#xea0e;" d="M502.119 556.378l-7.674 3.384 47.084 106.999 7.672-3.382z" />
<glyph unicode="&#xea0f;" d="M560.729 571.472h-40.51v8.382h32.13v40.514h8.38z" />
<glyph unicode="&#xea10;" d="M490.705 530.96h-47.148c-5.498 0-9.954 4.456-9.954 9.954v13.62c0 5.498 4.456 9.954 9.954 9.954h47.148c5.498 0 9.954-4.456 9.954-9.954v-13.62c0.002-5.498-4.454-9.954-9.954-9.954z" />
<glyph unicode="&#xea11;" d="M568.936 530.96h-47.148c-5.498 0-9.954 4.456-9.954 9.954v13.62c0 5.498 4.456 9.954 9.954 9.954h47.148c5.498 0 9.954-4.456 9.954-9.954v-13.62c0.002-5.498-4.456-9.954-9.954-9.954z" />
<glyph unicode="&#xea12;" d="M602.466 564.488h-58.323c-5.498 0-9.954 4.456-9.954 9.954v13.62c0 5.498 4.456 9.954 9.954 9.954h58.323c5.498 0 9.954-4.456 9.954-9.954v-13.62c-0.002-5.498-4.458-9.954-9.954-9.954z" />
<glyph unicode="&#xea13;" d="M613.642 609.191h-91.851c-5.498 0-9.954 4.456-9.954 9.954v13.62c0 5.498 4.456 9.954 9.954 9.954h91.851c5.498 0 9.954-4.456 9.954-9.954v-13.62c0-5.498-4.456-9.954-9.954-9.954z" />
<glyph unicode="&#xea14;" d="M568.936 653.895h-35.972c-5.498 0-9.954 4.456-9.954 9.954v13.62c0 5.498 4.456 9.954 9.954 9.954h35.972c5.498 0 9.954-4.456 9.954-9.954v-13.62c0.002-5.498-4.456-9.954-9.954-9.954z" />
<glyph unicode="&#xea15;" d="M423.654 631.543h-24.796c-5.498 0-9.954 4.456-9.954 9.954v13.62c0 5.498 4.456 9.954 9.954 9.954h24.796c5.498 0 9.954-4.456 9.954-9.954v-13.62c-0.002-5.498-4.458-9.954-9.954-9.954z" />
<glyph unicode="&#xea16;" d="M501.881 642.719h-47.148c-5.498 0-9.954 4.456-9.954 9.954v13.62c0 5.498 4.456 9.954 9.954 9.954h47.148c5.498 0 9.954-4.456 9.954-9.954v-13.62c0.002-5.498-4.454-9.954-9.954-9.954z" />
<glyph unicode="&#xea17;" d="M490.705 586.84h-80.675c-5.498 0-9.954 4.456-9.954 9.954v13.62c0 5.498 4.456 9.954 9.954 9.954h80.675c5.498 0 9.954-4.456 9.954-9.954v-13.62c0.002-5.498-4.454-9.954-9.954-9.954z" />
<glyph unicode="&#xea18;" d="M679.475 353.206h-335.275c-12.344 0-22.352-10.006-22.352-22.352 0-12.344 10.008-22.352 22.352-22.352h89.407c0-12.344 10.008-22.352 22.352-22.352h111.759c12.344 0 22.352 10.008 22.352 22.352h89.407c12.344 0 22.352 10.008 22.352 22.352-0.002 12.344-10.010 22.352-22.354 22.352z" />
<glyph unicode="&#xea19;" d="M734.655 551.576c-0.834 1.676-5.196-0.314-7.916 0.698-33.762 12.552-79.093 35.414-108.721 51.002l-5.948 9.418-56.159 27.296c-3.574 1.738-7.882 0.402-9.848-3.054l-2.768-4.868c-2.112-3.714-0.718-8.44 3.074-10.412l53.477-27.822 15.112 1.118 58.733-30.196c0 0 39.904-20.412 42.026-21.912s3.338-9.894 7.296-9.196c2.832 0.5 15.256 10.666 11.642 17.928z" />
<glyph unicode="&#xea1a;" d="M364.222 336.442c0 0 3.726-16.532 0.232-18.394-3.492-1.862-22.12-1.862-21.654 2.096s3.026 17.928 3.026 17.928l18.396-1.63z" />
<glyph unicode="&#xea1b;" d="M395.188 345.29c0 0-3.026-12.34 3.026-12.806 6.054-0.466 40.28-0.232 41.212 0.698 0.932 0.932 2.096 3.26 2.096 3.26l-31.666 8.848h-14.668z" />
<glyph unicode="&#xea1c;" d="M360.438 499.191c0 0-8.324-19.79-11.35-88.359-0.806-18.244 1.396-13.97-7.684-72.643l10.776-5.626c3.138-1.638 6.906-1.518 9.934 0.316l10.49 6.358c0 0-5.122 65.657 11.642 103.377 0 0 8.848-16.298 8.848-28.406s-0.466-70.315-0.466-70.315 19.558-3.26 28.406-2.328c0 0-5.588 126.311-11.176 156.054l-49.42 1.572z" />
<glyph unicode="&#xea1d;" d="M362.010 507.572c0 0-3.318-2.444-1.572-8.382 0 0 25.496-11.002 49.418-1.572 0 0 2.62 3.842-0.698 8.556l-47.148 1.398z" />
<glyph unicode="&#xea1e;" d="M327.901 568.108c-14.51-5.394-36.554-18.86-35.158-29.57 1.398-10.71 8.988-8.098 11.354-5.468s9.166 11.070 11.288 12.568c2.122 1.5 36.438 19.118 36.438 19.118l90.861 46.716c0 0 0.698 4.54-4.714 8.208 0.002 0-55.587-31.316-110.069-51.571z" />
<glyph unicode="&#xea1f;" d="M370.74 620.727l-0.524-3.842c0 0-1.396-24.622 6.636-31.258 0 0 1.746-5.064-1.048-7.508s-30.384-16.414-30.384-16.414-7.16-14.844-6.984-23.226c0 0-6.81 2.62-6.112 5.938s4.714 12.050 3.492 16.24-5.762 2.968-5.762 2.968-2.27-2.444 1.396-4.016l-1.222-5.238-14.844-8.732 3.318-4.016c0 0 0.174-30.734 18.336-34.75 0 0 9.604-0.698 20.954 20.954 0 0 6.112-10.826 4.016-20.256 0 0 19.908-10.826 47.148-1.396l0.35 18.86c0 0 4.19-28.988 18.51-26.194 0 0 39.666 15.268 33.062 21.072-15.366 13.504-33.922 2.092-33.922 2.092-0.9 19.616-2.542 44.988-5.076 47.734-4.19 4.54-17.114 2.096-19.674 7.916s-1.862 16.066 0.932 27.94-11.408 20.256-11.408 20.256l-21.19-5.124z" />
<glyph unicode="&#xea20;" d="M370.218 616.885c0 0 14.26-3.608 25.436 0.814l4.89-12.108h2.794c0 0 6.732 22.406-2.208 22.144 0 0-0.034 7.274-15.646 6.968-13.412-0.262-18.060-8.97-15.266-17.818z" />
<glyph unicode="&#xea21;" d="M661.294 336.442c0 0-3.726-16.532-0.232-18.394 3.492-1.862 22.12-1.862 21.654 2.096s-3.026 17.928-3.026 17.928l-18.396-1.63z" />
<glyph unicode="&#xea22;" d="M630.328 345.29c0 0 3.026-12.34-3.026-12.806-6.054-0.466-40.28-0.232-41.212 0.698-0.932 0.932-2.096 3.26-2.096 3.26l31.666 8.848h14.668z" />
<glyph unicode="&#xea23;" d="M665.078 499.191c0 0 8.324-19.79 11.35-88.359 0.806-18.244-1.396-13.97 7.684-72.643l-10.776-5.626c-3.138-1.638-6.906-1.518-9.934 0.316l-10.49 6.358c0 0 5.122 65.657-11.642 103.377 0 0-8.848-16.298-8.848-28.406s0.466-70.315 0.466-70.315-19.558-3.26-28.406-2.328c0 0 5.588 126.311 11.176 156.054l49.42 1.572z" />
<glyph unicode="&#xea24;" d="M663.504 507.572c0 0 3.318-2.444 1.572-8.382 0 0-25.496-11.002-49.418-1.572 0 0-2.62 3.842 0.698 8.556l47.148 1.398z" />
<glyph unicode="&#xea25;" d="M654.776 620.727l0.524-3.842c0 0 1.398-24.622-6.636-31.258 0 0-1.746-5.064 1.048-7.508s30.384-16.414 30.384-16.414 7.16-14.844 6.984-23.226c0 0 6.81 2.62 6.112 5.938s-4.714 12.050-3.492 16.24 5.762 2.968 5.762 2.968 2.27-2.444-1.398-4.016l1.222-5.238 14.844-8.732-3.318-4.016c0 0-0.174-30.734-18.336-34.75 0 0-9.604-0.698-20.954 20.954 0 0-6.112-10.826-4.016-20.256 0 0-19.908-10.826-47.148-1.396l-0.35 18.86c0 0-4.19-28.988-18.51-26.194 0 0-39.666 15.268-33.062 21.072 15.366 13.504 33.922 2.092 33.922 2.092 0.9 19.616 2.542 44.988 5.076 47.734 4.19 4.54 17.114 2.096 19.674 7.916s1.862 16.066-0.932 27.94 11.408 20.256 11.408 20.256l21.192-5.124z" />
<glyph unicode="&#xea26;" d="M655.298 616.885c0 0-14.26-3.608-25.436 0.814l-4.89-12.108h-2.794c0 0-6.732 22.406 2.208 22.144 0 0 0.034 7.274 15.646 6.968 13.41-0.262 18.060-8.97 15.266-17.818z" />
<glyph unicode="&#xea27;" d="M415.726 607.553c-1.166 2.836 0.788 3.616 0.788 3.616s14.134 7.758 15.778 7.626c2.718-0.22 6.048-4.996 6.048-9.072s5.308-14.656 16.222-17.286c0 0-13.62-18.51-32.526-15.98 0 0.002 1.268 12.662-6.31 31.096z" />
<glyph unicode="&#xea28;" d="M435.536 520.842c-4.188 0-7.584-3.622-7.584-8.088v-92.493c0-22.352 10.478-100.583 83.819-122.935 73.341 22.352 83.819 100.583 83.819 122.935v92.493c0 4.468-3.396 8.088-7.584 8.088h-152.471z" />
<glyph unicode="&#xea29;" d="M595.59 420.261v92.493c0 4.468-3.394 8.088-7.584 8.088h-76.235v-78.231l73.675-73.675c8.154 21.532 10.144 41.658 10.144 51.325z" />
<glyph unicode="&#xea2a;" d="M427.952 420.261v92.493c0 4.468 3.394 8.088 7.584 8.088h76.235v-78.231l-73.673-73.675c-8.16 21.532-10.146 41.658-10.146 51.325z" />
<glyph unicode="&#xea2b;" d="M462.343 371.33l19.392-20.51h54.017l11.45 14.678-13.172-5.27h-43.654z" />
<glyph unicode="&#xea2c;" d="M483.229 397.797l-2.96-29.856-13.474 5.144c0 0 6.198 14.388 16.434 24.712z" />
<glyph unicode="&#xea2d;" d="M509.815 409.625h1.992v-50.84h-1.992v50.84z" />
<glyph unicode="&#xea2e;" d="M528.235 405.325h1.992v-46.538h-1.992v46.538z" />
<glyph unicode="&#xea2f;" d="M491.455 405.325h1.992v-46.538h-1.992v46.538z" />
<glyph unicode="&#xea30;" d="M518.211 363.616h-14.782c-0.542 0-0.982 0.44-0.982 0.982v8.762c0 0.542 0.44 0.982 0.982 0.982h14.782c0.542 0 0.982-0.44 0.982-0.982v-8.762c0-0.542-0.44-0.982-0.982-0.982z" />
<glyph unicode="&#xea31;" d="M518.211 377.916h-14.782c-0.542 0-0.982 0.44-0.982 0.982v8.762c0 0.542 0.44 0.982 0.982 0.982h14.782c0.542 0 0.982-0.44 0.982-0.982v-8.762c0-0.542-0.44-0.982-0.982-0.982z" />
<glyph unicode="&#xea32;" d="M518.211 391.088h-14.782c-0.542 0-0.982 0.44-0.982 0.982v8.762c0 0.542 0.44 0.982 0.982 0.982h14.782c0.542 0 0.982-0.44 0.982-0.982v-8.762c0-0.542-0.44-0.982-0.982-0.982z" />
<glyph unicode="&#xea33;" d="M535.503 363.616h-12.524c-0.542 0-0.982 0.44-0.982 0.982v8.762c0 0.542 0.44 0.982 0.982 0.982h12.524c0.542 0 0.982-0.44 0.982-0.982v-8.762c0-0.542-0.438-0.982-0.982-0.982z" />
<glyph unicode="&#xea34;" d="M535.503 376.782h-12.524c-0.542 0-0.982 0.44-0.982 0.982v7.080c0 0.542 0.44 0.982 0.982 0.982h12.524c0.542 0 0.982-0.44 0.982-0.982v-7.080c0-0.542-0.438-0.982-0.982-0.982z" />
<glyph unicode="&#xea35;" d="M535.503 389.834h-12.524c-0.542 0-0.982 0.44-0.982 0.982v5.628c0 0.542 0.44 0.982 0.982 0.982h12.524c0.542 0 0.982-0.44 0.982-0.982v-5.628c0-0.544-0.438-0.982-0.982-0.982z" />
<glyph unicode="&#xea36;" d="M498.713 363.616h-12.524c-0.542 0-0.982 0.44-0.982 0.982v8.762c0 0.542 0.44 0.982 0.982 0.982h12.524c0.542 0 0.982-0.44 0.982-0.982v-8.762c0-0.542-0.44-0.982-0.982-0.982z" />
<glyph unicode="&#xea37;" d="M498.713 376.782h-12.524c-0.542 0-0.982 0.44-0.982 0.982v7.080c0 0.542 0.44 0.982 0.982 0.982h12.524c0.542 0 0.982-0.44 0.982-0.982v-7.080c0-0.542-0.44-0.982-0.982-0.982z" />
<glyph unicode="&#xea38;" d="M498.713 389.834h-12.524c-0.542 0-0.982 0.44-0.982 0.982v5.628c0 0.542 0.44 0.982 0.982 0.982h12.524c0.542 0 0.982-0.44 0.982-0.982v-5.628c0-0.544-0.44-0.982-0.982-0.982z" />
<glyph unicode="&#xea39;" d="M528.237 405.319v-6.014l-8.854 3.062z" />
<glyph unicode="&#xea3a;" d="M491.471 405.319v-6.014l-8.85 3.062z" />
<glyph unicode="&#xea3b;" d="M509.889 409.641v-6.014l-8.852 3.060z" />
<glyph unicode="&#xea3c;" d="M578.294 353.206h-133.045c1.982-3.768 4.154-7.502 6.594-11.176h119.857c2.44 3.674 4.612 7.408 6.594 11.176z" />
<glyph unicode="&#xea3d;" d="M571.7 342.030h-119.857c5.294-7.968 11.782-15.536 19.562-22.352h80.735c7.778 6.816 14.266 14.384 19.56 22.352v0z" />
<glyph unicode="&#xea3e;" d="M471.403 319.678c10.726-9.396 23.888-17.328 40.368-22.352 16.48 5.024 29.642 12.954 40.368 22.352h-80.735z" />
<glyph unicode="&#xea3f;" d="M497.415 436.045c0 0-0.82-0.286-1.698-0.186-0.68 0.292-2.072 0.338-1.232 2.918 0.408 1.28 1.264 3.084 0.642 3.552-0.502 0.582-1.046 1.212-1.626 1.884-1.16 1.344-2.47 2.862-3.9 4.516-2.936 3.236-6.416 6.956-10.474 10.624-2.026 1.838-4.118 3.738-6.244 5.668-2.202 1.858-4.238 3.938-6.638 5.668-1.358 0.714-3.082 1.072-4.59 1.63-1.472 0.594-2.394 1.712-3.472 2.66-2.108 1.948-4.184 3.864-6.192 5.718-4.078 3.65-7.658 7.274-10.722 10.384-2.97 2.97-5.372 5.552-7.064 7.432-1.614 1.792-1.512 4.516 0.222 6.192l4.966 4.792c1.736 1.674 4.462 1.678 6.196 0.002 1.82-1.76 4.314-4.252 7.176-7.326 3-3.174 6.494-6.882 9.994-11.086 1.782-2.074 3.622-4.216 5.492-6.394 0.91-1.112 1.994-2.072 2.536-3.566 0.504-1.528 0.802-3.264 1.466-4.646 1.642-2.46 3.648-4.568 5.426-6.836 1.854-2.194 3.676-4.352 5.442-6.442 3.52-4.188 7.114-7.798 10.242-10.848 1.602-1.488 3.072-2.85 4.374-4.060 0.652-0.604 1.26-1.17 1.824-1.692 0.446-0.636 2.28 0.154 3.572 0.516 2.608 0.748 2.606-0.646 2.872-1.336 0.068-0.882-0.246-1.692-0.246-1.692l-8.344-8.046z" />
<glyph unicode="&#xea40;" d="M442.68 427.245c-0.862 0-1.73 0.262-2.482 0.818-1.86 1.376-2.26 3.994-0.884 5.86l39.814 54.013c1.37 1.856 3.978 2.27 5.86 0.884 1.86-1.376 2.26-3.994 0.884-5.86l-39.814-54.013c-0.818-1.112-2.090-1.702-3.378-1.702z" />
<glyph unicode="&#xea41;" d="M474.585 491.507l20.722-13.738 8.846 12.34-19.324 15.6z" />
<glyph unicode="&#xea42;" d="M529.651 496.817l53.101-65.485c0 0 7.464-0.34 6.446 5.598l-54.967 64.467-4.58-4.58z" />
<glyph unicode="&#xea43;" d="M517.773 487.827c0 0 14.93 2.714 21.206 12.046l8.482-10.010c0 0-13.912-9.84-15.268-20.528 0 0-11.364 3.052-14.42 18.492z" />
<glyph unicode="&#xea44;" d="M575.116 494.273c-0.976 0-1.914 0.53-2.402 1.452-1.51 2.862-1.77 5.45-0.774 7.698 1.394 3.15 4.676 4.072 5.042 4.168 1.48 0.328 2.932-0.508 3.308-1.952 0.372-1.442-0.488-2.916-1.924-3.298-0.302-0.096-1.192-0.488-1.474-1.134-0.266-0.636-0.042-1.686 0.626-2.958 0.7-1.326 0.19-2.968-1.14-3.668-0.402-0.212-0.832-0.308-1.262-0.308z" />
<glyph unicode="&#xea45;" d="M531.489 453.871c0 0.976-0.53 1.914-1.452 2.402-2.862 1.51-5.45 1.77-7.698 0.774-3.15-1.394-4.072-4.676-4.168-5.042-0.328-1.48 0.508-2.932 1.95-3.308 1.442-0.372 2.916 0.488 3.298 1.924 0.096 0.302 0.488 1.192 1.134 1.474 0.636 0.266 1.686 0.042 2.958-0.626 1.326-0.7 2.968-0.19 3.668 1.14 0.218 0.404 0.31 0.832 0.31 1.262z" />
<glyph unicode="&#xea46;" d="M576.926 500.38l-49.992-49.086 11.764-13.12 48.858 49.312z" />
<glyph unicode="&#xea47;" d="M323.013 571.134c3.348 0.776 6.286-3.726 3.26-6.984s-11.774-9.148-14.436-8.614c-4.66 0.93-7.916 11.174 11.176 15.598z" />
<glyph unicode="&#xea48;" d="M702.311 566.42c-3.106 0.776-5.828-3.726-3.022-6.984s10.916-9.148 13.384-8.614c4.318 0.93 7.338 11.174-10.362 15.598z" />
<glyph unicode="&#xea49;" d="M588.004 520.842c4.188 0 7.584-3.622 7.584-8.088v-92.493c0-22.352-10.478-100.583-83.819-122.935-73.341 22.352-83.819 100.583-83.819 122.935v92.493c0 4.466 3.396 8.088 7.584 8.088h152.471zM588.004 526.43h-152.469c-7.262 0-13.172-6.136-13.172-13.676v-92.493c0-5.34 0.72-33.514 14.934-63.839 15.112-32.24 40.302-54.521 72.843-64.439l1.628-0.496 1.628 0.496c32.542 9.918 57.731 32.2 72.843 64.439 14.214 30.326 14.934 58.499 14.934 63.839v92.493c0.002 7.542-5.904 13.676-13.17 13.676v0z" />
<glyph unicode="&#xea4a;" d="M645.948 296.016c-23.748 7.96-49.226 4.286-73.253-11.744-30.712-20.474-51.072-20.474-60.855-20.474s-30.144 0-60.855 20.474c-24.024 16.020-49.512 19.698-73.253 11.744v-23.958c14.962 7.152 36.056 10.144 60.855-6.384 36.344-24.23 62.209-24.23 73.253-24.23s36.912 0 73.253 24.23c24.802 16.546 45.894 13.544 60.855 6.388v23.954z" />
<glyph unicode="&#xea4b;" d="M511.837 168.804c-157.138 0-284.983 127.845-284.983 284.983s127.845 284.983 284.983 284.983 284.983-127.845 284.983-284.983-127.845-284.983-284.983-284.983zM511.837 727.596c-150.977 0-273.807-122.825-273.807-273.807s122.831-273.807 273.807-273.807 273.807 122.825 273.807 273.807-122.831 273.807-273.807 273.807z" />
<glyph unicode="&#xea4c;" d="M200.078 430.039c0 0-1.164 34.924 32.364 34.924 0 0 0.698-13.738-11.408-19.79-9.792-4.894-20.956-15.134-20.956-15.134z" />
<glyph unicode="&#xea4d;" d="M264.811 430.039c0 0 1.164 34.924-32.364 34.924 0 0-0.698-13.738 11.408-19.79 9.792-4.894 20.956-15.134 20.956-15.134z" />
<glyph unicode="&#xea4e;" d="M823.364 464.963c0 0 1.164-34.924-32.364-34.924 0 0-0.698 13.738 11.408 19.79 9.79 4.896 20.956 15.134 20.956 15.134z" />
<glyph unicode="&#xea4f;" d="M758.629 464.963c0 0-1.164-34.924 32.364-34.924 0 0 0.698 13.738-11.408 19.79-9.79 4.896-20.956 15.134-20.956 15.134z" />
<glyph unicode="&#xea50;" d="M529.183 135.858c0 0-34.924-1.164-34.924 32.364 0 0 13.738 0.698 19.79-11.408 4.894-9.79 15.134-20.956 15.134-20.956z" />
<glyph unicode="&#xea51;" d="M529.183 200.593c0 0-34.924 1.164-34.924-32.364 0 0 13.738-0.698 19.79 11.408 4.894 9.79 15.134 20.956 15.134 20.956z" />
<glyph unicode="&#xea52;" d="M494.259 759.144c0 0 34.924 1.164 34.924-32.364 0 0-13.738-0.698-19.79 11.408-4.896 9.792-15.134 20.956-15.134 20.956z" />
<glyph unicode="&#xea53;" d="M494.259 694.411c0 0 34.924-1.164 34.924 32.364 0 0-13.738 0.698-19.79-11.408-4.896-9.792-15.134-20.956-15.134-20.956z" />
<glyph unicode="&#xea54;" d="M303.703 214.789c0 0-25.518 23.872-1.812 47.58 0 0 10.208-9.22 5.926-22.062-3.46-10.384-4.114-25.518-4.114-25.518z" />
<glyph unicode="&#xea55;" d="M349.479 260.563c0 0-23.872 25.518-47.58 1.812 0 0 9.22-10.208 22.062-5.926 10.382 3.46 25.518 4.114 25.518 4.114z" />
<glyph unicode="&#xea56;" d="M719.735 680.213c0 0 25.518-23.872 1.81-47.58 0 0-10.208 9.22-5.926 22.062 3.462 10.384 4.116 25.518 4.116 25.518z" />
<glyph unicode="&#xea57;" d="M673.961 634.439c0 0 23.872-25.518 47.58-1.812 0 0-9.22 10.208-22.062 5.926-10.382-3.458-25.518-4.114-25.518-4.114z" />
<glyph unicode="&#xea58;" d="M744.433 239.485c0 0-23.872-25.518-47.58-1.812 0 0 9.22 10.208 22.062 5.926 10.382-3.46 25.518-4.114 25.518-4.114z" />
<glyph unicode="&#xea59;" d="M698.657 285.259c0 0-25.518-23.872-1.812-47.58 0 0 10.208 9.22 5.926 22.062-3.458 10.382-4.114 25.518-4.114 25.518z" />
<glyph unicode="&#xea5a;" d="M279.009 655.519c0 0 23.872 25.518 47.58 1.812 0 0-9.22-10.208-22.062-5.926-10.384 3.458-25.518 4.114-25.518 4.114z" />
<glyph unicode="&#xea5b;" d="M324.783 609.743c0 0 25.518 23.872 1.812 47.58 0 0-10.208-9.22-5.926-22.062 3.456-10.382 4.114-25.518 4.114-25.518z" />
<glyph unicode="&#xea5c;" d="M230.484 312.108c0 0-14.44 31.82 16.534 44.652 0 0 5.902-12.424-2.966-22.65-7.172-8.27-13.568-22.002-13.568-22.002z" />
<glyph unicode="&#xea5d;" d="M290.289 336.88c0 0-12.29 32.712-43.266 19.882 0 0 4.612-12.958 18.114-13.918 10.918-0.776 25.152-5.964 25.152-5.964z" />
<glyph unicode="&#xea5e;" d="M792.958 582.896c0 0 14.44-31.82-16.534-44.652 0 0-5.902 12.424 2.966 22.65 7.172 8.268 13.568 22.002 13.568 22.002z" />
<glyph unicode="&#xea5f;" d="M733.151 558.122c0 0 12.29-32.712 43.266-19.882 0 0-4.612 12.958-18.114 13.918-10.92 0.778-25.152 5.964-25.152 5.964z" />
<glyph unicode="&#xea60;" d="M647.114 166.264c0 0-31.82-14.44-44.652 16.534 0 0 12.424 5.902 22.65-2.966 8.27-7.172 22.002-13.568 22.002-13.568z" />
<glyph unicode="&#xea61;" d="M622.34 226.069c0 0-32.712-12.29-19.882-43.266 0 0 12.958 4.612 13.918 18.114 0.776 10.92 5.964 25.152 5.964 25.152z" />
<glyph unicode="&#xea62;" d="M376.326 728.738c0 0 31.82 14.44 44.652-16.534 0 0-12.424-5.902-22.65 2.966-8.268 7.172-22.002 13.568-22.002 13.568z" />
<glyph unicode="&#xea63;" d="M401.098 668.933c0 0 32.712 12.29 19.882 43.266 0 0-12.958-4.612-13.918-18.114-0.776-10.918-5.964-25.152-5.964-25.152z" />
<glyph unicode="&#xea64;" d="M408.594 152.898c0 0-32.712 12.29-19.882 43.266 0 0 12.958-4.612 13.918-18.114 0.774-10.918 5.964-25.152 5.964-25.152z" />
<glyph unicode="&#xea65;" d="M433.366 212.705c0 0-31.82 14.44-44.652-16.534 0 0 12.424-5.902 22.65 2.966 8.268 7.172 22.002 13.568 22.002 13.568z" />
<glyph unicode="&#xea66;" d="M614.848 742.104c0 0 32.712-12.29 19.882-43.266 0 0-12.958 4.612-13.918 18.114-0.776 10.918-5.964 25.152-5.964 25.152z" />
<glyph unicode="&#xea67;" d="M590.074 682.297c0 0 31.82-14.44 44.652 16.534 0 0-12.424 5.902-22.65-2.966-8.27-7.17-22.002-13.568-22.002-13.568z" />
<glyph unicode="&#xea68;" d="M806.322 344.374c0 0-12.29-32.712-43.266-19.882 0 0 4.612 12.958 18.114 13.918 10.918 0.776 25.152 5.964 25.152 5.964z" />
<glyph unicode="&#xea69;" d="M746.517 369.146c0 0-14.44-31.82 16.534-44.652 0 0 5.902 12.424-2.966 22.65-7.17 8.27-13.568 22.002-13.568 22.002z" />
<glyph unicode="&#xea6a;" d="M217.118 550.628c0 0 12.29 32.712 43.266 19.882 0 0-4.612-12.958-18.114-13.918-10.918-0.776-25.152-5.964-25.152-5.964z" />
<glyph unicode="&#xea6b;" d="M276.925 525.856c0 0 14.44 31.82-16.536 44.652 0 0-5.902-12.424 2.966-22.65 7.17-8.27 13.57-22.002 13.57-22.002z" />
<glyph unicode="&#xea6c;" d="M209.472 369.576c0 0-7.956 34.026 24.928 40.568 0 0 3.366-13.336-7.328-21.636-8.646-6.712-17.6-18.932-17.6-18.932z" />
<glyph unicode="&#xea6d;" d="M272.961 382.206c0 0-5.672 34.48-38.556 27.94 0 0 1.994-13.61 15.050-17.184 10.558-2.892 23.506-10.756 23.506-10.756z" />
<glyph unicode="&#xea6e;" d="M813.966 525.426c0 0 7.956-34.026-24.928-40.568 0 0-3.366 13.336 7.328 21.636 8.65 6.712 17.6 18.932 17.6 18.932z" />
<glyph unicode="&#xea6f;" d="M750.477 512.798c0 0 5.672-34.48 38.556-27.94 0 0-1.994 13.61-15.050 17.184-10.558 2.892-23.506 10.756-23.506 10.756z" />
<glyph unicode="&#xea70;" d="M589.646 145.254c0 0-34.026-7.956-40.568 24.928 0 0 13.336 3.366 21.636-7.328 6.712-8.648 18.932-17.6 18.932-17.6z" />
<glyph unicode="&#xea71;" d="M577.014 208.743c0 0-34.48-5.672-27.94-38.556 0 0 13.61 1.994 17.184 15.050 2.892 10.558 10.756 23.506 10.756 23.506z" />
<glyph unicode="&#xea72;" d="M433.796 749.75c0 0 34.026 7.956 40.568-24.928 0 0-13.336-3.366-21.636 7.328-6.712 8.646-18.932 17.6-18.932 17.6z" />
<glyph unicode="&#xea73;" d="M446.426 686.259c0 0 34.48 5.672 27.94 38.556 0 0-13.61-1.994-17.184-15.050-2.894-10.558-10.756-23.506-10.756-23.506z" />
<glyph unicode="&#xea74;" d="M353.099 178.678c0 0-29.686 18.436-11.058 46.312 0 0 11.81-7.052 10.118-20.482-1.37-10.858 0.94-25.83 0.94-25.83z" />
<glyph unicode="&#xea75;" d="M389.064 232.503c0 0-28.392 20.372-47.020-7.506 0 0 11.034-8.212 22.794-1.51 9.51 5.422 24.226 9.016 24.226 9.016z" />
<glyph unicode="&#xea76;" d="M670.339 716.324c0 0 29.686-18.436 11.058-46.312 0 0-11.81 7.052-10.118 20.482 1.37 10.858-0.94 25.83-0.94 25.83z" />
<glyph unicode="&#xea77;" d="M634.374 662.499c0 0 28.392-20.372 47.020 7.506 0 0-11.034 8.212-22.794 1.51-9.508-5.42-24.226-9.016-24.226-9.016z" />
<glyph unicode="&#xea78;" d="M780.544 288.881c0 0-18.436-29.686-46.312-11.058 0 0 7.052 11.81 20.482 10.118 10.856-1.37 25.83 0.94 25.83 0.94z" />
<glyph unicode="&#xea79;" d="M726.717 324.846c0 0-20.372-28.392 7.506-47.020 0 0 8.212 11.034 1.51 22.794-5.42 9.51-9.016 24.226-9.016 24.226z" />
<glyph unicode="&#xea7a;" d="M242.898 606.121c0 0 18.436 29.686 46.312 11.058 0 0-7.052-11.81-20.482-10.118-10.858 1.37-25.83-0.94-25.83-0.94z" />
<glyph unicode="&#xea7b;" d="M296.723 570.158c0 0 20.372 28.392-7.506 47.020 0 0-8.212-11.034-1.51-22.794 5.418-9.51 9.016-24.226 9.016-24.226z" />
<glyph unicode="&#xea7c;" d="M262.301 259.843c0 0-20.372 28.392 7.506 47.020 0 0 8.212-11.034 1.51-22.794-5.422-9.51-9.016-24.226-9.016-24.226z" />
<glyph unicode="&#xea7d;" d="M316.125 295.806c0 0-18.436 29.686-46.312 11.058 0 0 7.052-11.81 20.482-10.118 10.856 1.372 25.83-0.94 25.83-0.94z" />
<glyph unicode="&#xea7e;" d="M761.141 635.159c0 0 20.372-28.392-7.506-47.020 0 0-8.212 11.034-1.51 22.794 5.42 9.51 9.016 24.226 9.016 24.226z" />
<glyph unicode="&#xea7f;" d="M707.315 599.196c0 0 18.436-29.686 46.312-11.058 0 0-7.052 11.81-20.482 10.118-10.858-1.37-25.83 0.94-25.83 0.94z" />
<glyph unicode="&#xea80;" d="M699.379 198.081c0 0-28.392-20.372-47.020 7.506 0 0 11.034 8.212 22.794 1.51 9.51-5.422 24.226-9.016 24.226-9.016z" />
<glyph unicode="&#xea81;" d="M663.416 251.905c0 0-29.686-18.436-11.058-46.312 0 0 11.81 7.052 10.118 20.482-1.37 10.86 0.94 25.83 0.94 25.83z" />
<glyph unicode="&#xea82;" d="M324.063 696.921c0 0 28.392 20.372 47.020-7.506 0 0-11.034-8.212-22.794-1.51-9.51 5.422-24.226 9.016-24.226 9.016z" />
<glyph unicode="&#xea83;" d="M360.024 643.097c0 0 29.686 18.436 11.058 46.312 0 0-11.81-7.052-10.118-20.482 1.372-10.858-0.94-25.83-0.94-25.83z" />
<glyph unicode="&#xea84;" d="M468.049 138.44c0 0-34.48 5.672-27.94 38.556 0 0 13.61-1.994 17.184-15.050 2.89-10.558 10.756-23.506 10.756-23.506z" />
<glyph unicode="&#xea85;" d="M480.675 201.929c0 0-34.026 7.956-40.568-24.928 0 0 13.336-3.366 21.636 7.328 6.712 8.648 18.932 17.6 18.932 17.6z" />
<glyph unicode="&#xea86;" d="M555.393 756.562c0 0 34.48-5.672 27.94-38.556 0 0-13.61 1.994-17.184 15.050-2.894 10.558-10.756 23.506-10.756 23.506z" />
<glyph unicode="&#xea87;" d="M542.763 693.073c0 0 34.026-7.956 40.568 24.928 0 0-13.336 3.366-21.636-7.328-6.71-8.648-18.932-17.6-18.932-17.6z" />
<glyph unicode="&#xea88;" d="M820.782 403.829c0 0-5.672-34.48-38.556-27.94 0 0 1.994 13.61 15.050 17.184 10.558 2.892 23.506 10.756 23.506 10.756z" />
<glyph unicode="&#xea89;" d="M757.293 416.459c0 0-7.956-34.026 24.928-40.568 0 0 3.366 13.336-7.328 21.636-8.65 6.71-17.6 18.932-17.6 18.932z" />
<glyph unicode="&#xea8a;" d="M202.66 491.173c0 0 5.672 34.48 38.556 27.94 0 0-1.994-13.61-15.050-17.184-10.558-2.892-23.506-10.756-23.506-10.756z" />
<glyph unicode="&#xea8b;" d="M266.149 478.545c0 0 7.956 34.026-24.928 40.568 0 0-3.366-13.336 7.328-21.636 8.648-6.712 17.6-18.932 17.6-18.932z" />
<glyph unicode="&#xea8c;" d="M0 960h1024v-512h-1024v512z" />
<glyph unicode="&#xea8d;" d="M0 448h1024v-512h-1024v512z" />
<glyph unicode="&#xea8e;" d="M0 960h335.44v-1024h-335.44v1024z" />
<glyph unicode="&#xea8f;" d="M0 960h1024v-1024h-1024v1024z" />
<glyph unicode="&#xea90;" d="M610.956 436.218c-4.298 0-7.782-3.484-7.782-7.782v-287.92c0-23.344 15.564-101.16 163.414-124.506 147.85 23.344 163.414 101.16 163.414 124.506v287.92c0 4.298-3.484 7.782-7.782 7.782h-311.264z" />
<glyph unicode="&#xea91;" d="M766.588 16.010c123.422 19.488 154.638 76.912 161.592 108.942h-323.182c6.952-32.030 38.168-89.454 161.59-108.942z" />
<glyph unicode="&#xea92;" d="M867.75 272.804c0 0 7.782 7.782 0 23.344l-101.16 4.526-101.16-4.526c-7.782-15.564 0-23.344 0-23.344-7.782-7.782-7.782-15.564-7.782-15.564h15.564l16.86-27.884 76.518-42.152 76.518 42.152 16.86 27.884h15.564c-0.002 0-0.002 7.782-7.782 15.564z" />
<glyph unicode="&#xea93;" d="M843.108 229.356c0 0-4.864 10.7-17.832 9.402 0 0-7.134 9.402-19.13 6.808 0 0-13.942 8.106-22.048-6.808 0 0-25.778 2.62-27.156-17.008 0 0 40.124-60.482 41.098-61.132 0.972-0.648 47.986-0.324 47.986-0.324l21.726 23.97-21.402 30.826-3.242 14.266z" />
<glyph unicode="&#xea94;" d="M767.562 210.226c0 0-34.038 55.604-38.908 60.308-4.702 4.54-13.942 8.754-23.344 0.972 0 0-28.208 2.27-24.318-19.13l8.106-32.424c0 0-7.134-22.372-10.376-24.642s-15.24-8.43-15.24-8.43l6.808-26.912 90.786 4.54 6.486 45.718z" />
</font>
</defs>
</svg>
